  0
SECTION
  2
HEADER
  9
$ACADVER
  1
AC1015
  9
$ACADMAINTVER
 70
     6
  9
$DWGCODEPAGE
  3
ANSI_1252
  9
$INSBASE
 10
0.0
 20
0.0
 30
0.0
  9
$EXTMIN
 10
0.0
 20
0.0
 30
0.0
  9
$EXTMAX
 10
297.0000000000002
 20
210.0000000000001
 30
0.0
  9
$LIMMIN
 10
0.0
 20
0.0
  9
$LIMMAX
 10
12.0
 20
9.0
  9
$ORTHOMODE
 70
     0
  9
$REGENMODE
 70
     1
  9
$FILLMODE
 70
     1
  9
$QTEXTMODE
 70
     0
  9
$MIRRTEXT
 70
     1
  9
$LTSCALE
 40
1.0
  9
$ATTMODE
 70
     1
  9
$TEXTSIZE
 40
0.2
  9
$TRACEWID
 40
0.05
  9
$TEXTSTYLE
  7
Standard
  9
$CLAYER
  8
0
  9
$CELTYPE
  6
ByLayer
  9
$CECOLOR
 62
   256
  9
$CELTSCALE
 40
1.0
  9
$DISPSILH
 70
     0
  9
$DIMSCALE
 40
1.0
  9
$DIMASZ
 40
0.18
  9
$DIMEXO
 40
0.0625
  9
$DIMDLI
 40
0.38
  9
$DIMRND
 40
0.0
  9
$DIMDLE
 40
0.0
  9
$DIMEXE
 40
0.18
  9
$DIMTP
 40
0.0
  9
$DIMTM
 40
0.0
  9
$DIMTXT
 40
0.18
  9
$DIMCEN
 40
0.09
  9
$DIMTSZ
 40
0.0
  9
$DIMTOL
 70
     0
  9
$DIMLIM
 70
     0
  9
$DIMTIH
 70
     1
  9
$DIMTOH
 70
     1
  9
$DIMSE1
 70
     0
  9
$DIMSE2
 70
     0
  9
$DIMTAD
 70
     0
  9
$DIMZIN
 70
     0
  9
$DIMBLK
  1

  9
$DIMASO
 70
     1
  9
$DIMSHO
 70
     1
  9
$DIMPOST
  1

  9
$DIMAPOST
  1

  9
$DIMALT
 70
     0
  9
$DIMALTD
 70
     2
  9
$DIMALTF
 40
25.4
  9
$DIMLFAC
 40
1.0
  9
$DIMTOFL
 70
     0
  9
$DIMTVP
 40
0.0
  9
$DIMTIX
 70
     0
  9
$DIMSOXD
 70
     0
  9
$DIMSAH
 70
     0
  9
$DIMBLK1
  1

  9
$DIMBLK2
  1

  9
$DIMSTYLE
  2
Standard
  9
$DIMCLRD
 70
     0
  9
$DIMCLRE
 70
     0
  9
$DIMCLRT
 70
     0
  9
$DIMTFAC
 40
1.0
  9
$DIMGAP
 40
0.09
  9
$DIMJUST
 70
     0
  9
$DIMSD1
 70
     0
  9
$DIMSD2
 70
     0
  9
$DIMTOLJ
 70
     1
  9
$DIMTZIN
 70
     0
  9
$DIMALTZ
 70
     0
  9
$DIMALTTZ
 70
     0
  9
$DIMUPT
 70
     0
  9
$DIMDEC
 70
     4
  9
$DIMTDEC
 70
     4
  9
$DIMALTU
 70
     2
  9
$DIMALTTD
 70
     2
  9
$DIMTXSTY
  7
Standard
  9
$DIMAUNIT
 70
     0
  9
$DIMADEC
 70
     0
  9
$DIMALTRND
 40
0.0
  9
$DIMAZIN
 70
     0
  9
$DIMDSEP
 70
    46
  9
$DIMATFIT
 70
     3
  9
$DIMFRAC
 70
     0
  9
$DIMLDRBLK
  1

  9
$DIMLUNIT
 70
     2
  9
$DIMLWD
 70
    -2
  9
$DIMLWE
 70
    -2
  9
$DIMTMOVE
 70
     0
  9
$LUNITS
 70
     2
  9
$LUPREC
 70
     4
  9
$SKETCHINC
 40
0.1
  9
$FILLETRAD
 40
0.5
  9
$AUNITS
 70
     0
  9
$AUPREC
 70
     0
  9
$MENU
  1
.
  9
$ELEVATION
 40
0.0
  9
$PELEVATION
 40
0.0
  9
$THICKNESS
 40
0.0
  9
$LIMCHECK
 70
     0
  9
$CHAMFERA
 40
0.5
  9
$CHAMFERB
 40
0.5
  9
$CHAMFERC
 40
1.0
  9
$CHAMFERD
 40
0.0
  9
$SKPOLY
 70
     0
  9
$TDCREATE
 40
2456997.611418438
  9
$TDUCREATE
 40
2456997.569751771
  9
$TDUPDATE
 40
2456997.611418623
  9
$TDUUPDATE
 40
2456997.569751956
  9
$TDINDWG
 40
0.0000000116
  9
$TDUSRTIMER
 40
0.0000000116
  9
$USRTIMER
 70
     1
  9
$ANGBASE
 50
0.0
  9
$ANGDIR
 70
     0
  9
$PDMODE
 70
     0
  9
$PDSIZE
 40
0.0
  9
$PLINEWID
 40
0.0
  9
$SPLFRAME
 70
     0
  9
$SPLINETYPE
 70
     6
  9
$SPLINESEGS
 70
     8
  9
$HANDSEED
  5
613
  9
$SURFTAB1
 70
     6
  9
$SURFTAB2
 70
     6
  9
$SURFTYPE
 70
     6
  9
$SURFU
 70
     6
  9
$SURFV
 70
     6
  9
$UCSBASE
  2

  9
$UCSNAME
  2

  9
$UCSORG
 10
0.0
 20
0.0
 30
0.0
  9
$UCSXDIR
 10
1.0
 20
0.0
 30
0.0
  9
$UCSYDIR
 10
0.0
 20
1.0
 30
0.0
  9
$UCSORTHOREF
  2

  9
$UCSORTHOVIEW
 70
     0
  9
$UCSORGTOP
 10
0.0
 20
0.0
 30
0.0
  9
$UCSORGBOTTOM
 10
0.0
 20
0.0
 30
0.0
  9
$UCSORGLEFT
 10
0.0
 20
0.0
 30
0.0
  9
$UCSORGRIGHT
 10
0.0
 20
0.0
 30
0.0
  9
$UCSORGFRONT
 10
0.0
 20
0.0
 30
0.0
  9
$UCSORGBACK
 10
0.0
 20
0.0
 30
0.0
  9
$PUCSBASE
  2

  9
$PUCSNAME
  2

  9
$PUCSORG
 10
0.0
 20
0.0
 30
0.0
  9
$PUCSXDIR
 10
1.0
 20
0.0
 30
0.0
  9
$PUCSYDIR
 10
0.0
 20
1.0
 30
0.0
  9
$PUCSORTHOREF
  2

  9
$PUCSORTHOVIEW
 70
     0
  9
$PUCSORGTOP
 10
0.0
 20
0.0
 30
0.0
  9
$PUCSORGBOTTOM
 10
0.0
 20
0.0
 30
0.0
  9
$PUCSORGLEFT
 10
0.0
 20
0.0
 30
0.0
  9
$PUCSORGRIGHT
 10
0.0
 20
0.0
 30
0.0
  9
$PUCSORGFRONT
 10
0.0
 20
0.0
 30
0.0
  9
$PUCSORGBACK
 10
0.0
 20
0.0
 30
0.0
  9
$USERI1
 70
     0
  9
$USERI2
 70
     0
  9
$USERI3
 70
     0
  9
$USERI4
 70
     0
  9
$USERI5
 70
     0
  9
$USERR1
 40
18.1
  9
$USERR2
 40
0.0
  9
$USERR3
 40
0.0
  9
$USERR4
 40
0.0
  9
$USERR5
 40
0.0
  9
$WORLDVIEW
 70
     1
  9
$SHADEDGE
 70
     3
  9
$SHADEDIF
 70
    70
  9
$TILEMODE
 70
     1
  9
$MAXACTVP
 70
    64
  9
$PINSBASE
 10
0.0
 20
0.0
 30
0.0
  9
$PLIMCHECK
 70
     0
  9
$PEXTMIN
 10
1.00000000000000E+20
 20
1.00000000000000E+20
 30
1.00000000000000E+20
  9
$PEXTMAX
 10
-1.00000000000000E+20
 20
-1.00000000000000E+20
 30
-1.00000000000000E+20
  9
$PLIMMIN
 10
0.0
 20
0.0
  9
$PLIMMAX
 10
12.0
 20
9.0
  9
$UNITMODE
 70
     0
  9
$VISRETAIN
 70
     1
  9
$PLINEGEN
 70
     0
  9
$PSLTSCALE
 70
     1
  9
$TREEDEPTH
 70
  3020
  9
$CMLSTYLE
  2
Standard
  9
$CMLJUST
 70
     0
  9
$CMLSCALE
 40
1.0
  9
$PROXYGRAPHICS
 70
     1
  9
$MEASUREMENT
 70
     1
  9
$CELWEIGHT
370
    -1
  9
$ENDCAPS
280
     0
  9
$JOINSTYLE
280
     0
  9
$LWDISPLAY
290
     0
  9
$INSUNITS
 70
     4
  9
$HYPERLINKBASE
  1

  9
$STYLESHEET
  1

  9
$XEDIT
290
     1
  9
$CEPSNTYPE
380
     0
  9
$PSTYLEMODE
290
     1
  9
$FINGERPRINTGUID
  2
{C0E9AF57-2EB8-40A4-8D81-B787D9775A0D}
  9
$VERSIONGUID
  2
{FAEB1C32-E019-11D5-929B-00C0DF256EC4}
  9
$EXTNAMES
290
     1
  9
$PSVPSCALE
 40
0.0
  9
$OLESTARTUP
290
     0
  0
ENDSEC
  0
SECTION
  2
CLASSES
  0
CLASS
  1
ACDBDICTIONARYWDFLT
  2
AcDbDictionaryWithDefault
  3
ObjectDBX Classes
 90
        0
280
     0
281
     0
  0
CLASS
  1
VISUALSTYLE
  2
AcDbVisualStyle
  3
ObjectDBX Classes
 90
     4095
280
     0
281
     0
  0
CLASS
  1
MATERIAL
  2
AcDbMaterial
  3
ObjectDBX Classes
 90
     1153
280
     0
281
     0
  0
CLASS
  1
DICTIONARYVAR
  2
AcDbDictionaryVar
  3
ObjectDBX Classes
 90
        0
280
     0
281
     0
  0
CLASS
  1
ACDBPLACEHOLDER
  2
AcDbPlaceHolder
  3
ObjectDBX Classes
 90
        0
280
     0
281
     0
  0
CLASS
  1
LAYOUT
  2
AcDbLayout
  3
ObjectDBX Classes
 90
        0
280
     0
281
     0
  0
ENDSEC
  0
SECTION
  2
TABLES
  0
TABLE
  2
VPORT
  5
8
330
0
100
AcDbSymbolTable
 70
     1
  0
VPORT
  5
29
330
8
100
AcDbSymbolTableRecord
100
AcDbViewportTableRecord
  2
*Active
 70
     0
 10
0.0
 20
0.0
 11
1.0
 21
1.0
 12
148.5000000000001
 22
105.0000000000001
 13
0.0
 23
0.0
 14
0.5
 24
0.5
 15
0.5
 25
0.5
 16
0.0
 26
0.0
 36
1.0
 17
0.0
 27
0.0
 37
0.0
 40
231.0000000000001
 41
1.60267857142857
 42
50.0
 43
0.0
 44
0.0
 50
0.0
 51
0.0
 71
     0
 72
   100
 73
     1
 74
     3
 75
     0
 76
     0
 77
     0
 78
     0
281
     0
 65
     1
110
0.0
120
0.0
130
0.0
111
1.0
121
0.0
131
0.0
112
0.0
122
1.0
132
0.0
 79
     0
146
0.0
  0
ENDTAB
  0
TABLE
  2
LTYPE
  5
5
330
0
100
AcDbSymbolTable
 70
    10
  0
LTYPE
  5
14
330
5
100
AcDbSymbolTableRecord
100
AcDbLinetypeTableRecord
  2
ByBlock
 70
     0
  3

 72
    65
 73
     0
 40
0.0
  0
LTYPE
  5
15
330
5
100
AcDbSymbolTableRecord
100
AcDbLinetypeTableRecord
  2
ByLayer
 70
     0
  3

 72
    65
 73
     0
 40
0.0
  0
LTYPE
  5
16
330
5
100
AcDbSymbolTableRecord
100
AcDbLinetypeTableRecord
  2
Continuous
 70
     0
  3
Solid line
 72
    65
 73
     0
 40
0.0
  0
LTYPE
  5
3F
330
5
100
AcDbSymbolTableRecord
100
AcDbLinetypeTableRecord
  2
DASHED
 70
     0
  3
Dashed
 72
    65
 73
     2
 40
15.0
 49
7.0
 74
     0
 49
-8.0
 74
     0
  0
LTYPE
  5
40
330
5
100
AcDbSymbolTableRecord
100
AcDbLinetypeTableRecord
  2
DOTTED
 70
     0
  3
Dotted
 72
    65
 73
     2
 40
1.0
 49
0.0
 74
     0
 49
-1.0
 74
     0
  0
LTYPE
  5
41
330
5
100
AcDbSymbolTableRecord
100
AcDbLinetypeTableRecord
  2
DOT_CENTER
 70
     0
  3
Dot_Center
 72
    65
 73
     4
 40
14.0
 49
12.0
 74
     0
 49
-1.0
 74
     0
 49
0.0
 74
     0
 49
-1.0
 74
     0
  0
LTYPE
  5
42
330
5
100
AcDbSymbolTableRecord
100
AcDbLinetypeTableRecord
  2
LONG_DASHED
 70
     0
  3
Long_Dashed
 72
    65
 73
     2
 40
15.0
 49
10.0
 74
     0
 49
-5.0
 74
     0
  0
LTYPE
  5
43
330
5
100
AcDbSymbolTableRecord
100
AcDbLinetypeTableRecord
  2
DASH_CENTER
 70
     0
  3
Dash_Center
 72
    65
 73
     4
 40
14.0
 49
11.0
 74
     0
 49
-1.0
 74
     0
 49
1.0
 74
     0
 49
-1.0
 74
     0
  0
LTYPE
  5
44
330
5
100
AcDbSymbolTableRecord
100
AcDbLinetypeTableRecord
  2
PHANTOM
 70
     0
  3
Phantom
 72
    65
 73
     6
 40
13.0
 49
10.0
 74
     0
 49
-1.0
 74
     0
 49
0.0
 74
     0
 49
-1.0
 74
     0
 49
0.0
 74
     0
 49
-1.0
 74
     0
  0
LTYPE
  5
45
330
5
100
AcDbSymbolTableRecord
100
AcDbLinetypeTableRecord
  2
CENTER_DASH_DASH
 70
     0
  3
Center_Dash_Dash
 72
    65
 73
     6
 40
14.0
 49
9.0
 74
     0
 49
-1.0
 74
     0
 49
1.0
 74
     0
 49
-1.0
 74
     0
 49
1.0
 74
     0
 49
-1.0
 74
     0
  0
LTYPE
  5
46
330
5
100
AcDbSymbolTableRecord
100
AcDbLinetypeTableRecord
  2
CHAIN
 70
     0
  3
CHAIN
 72
    65
 73
     4
 40
4.0
 49
1.0
 74
     0
 49
-1.0
 74
     0
 49
1.0
 74
     0
 49
-1.0
 74
     0
  0
LTYPE
  5
47
330
5
100
AcDbSymbolTableRecord
100
AcDbLinetypeTableRecord
  2
DASHED_SPACE
 70
     0
  3
DASHED_SPACE
 72
    65
 73
     2
 40
2.0
 49
1.0
 74
     0
 49
-1.0
 74
     0
  0
ENDTAB
  0
TABLE
  2
LAYER
  5
2
330
0
100
AcDbSymbolTable
 70
     8
  0
LAYER
  5
10
330
2
100
AcDbSymbolTableRecord
100
AcDbLayerTableRecord
  2
0
 70
     0
 62
     7
  6
Continuous
370
    -3
390
F
  0
LAYER
  5
48
330
2
100
AcDbSymbolTableRecord
100
AcDbLayerTableRecord
  2
1
 70
     0
 62
     7
  6
Continuous
370
    -3
390
F
  0
LAYER
  5
49
330
2
100
AcDbSymbolTableRecord
100
AcDbLayerTableRecord
  2
Bemaßungen_TC_020513_DIN_
 70
     0
 62
     7
  6
Continuous
370
    -3
390
F
  0
LAYER
  5
4A
330
2
100
AcDbSymbolTableRecord
100
AcDbLayerTableRecord
  2
Mittellinie_TC_020513_DIN_
 70
     0
 62
     7
  6
Continuous
370
    -3
390
F
  0
LAYER
  5
4B
330
2
100
AcDbSymbolTableRecord
100
AcDbLayerTableRecord
  2
Mittelpunktmarkierung_TC_020513_DIN_
 70
     0
 62
     7
  6
Continuous
370
    -3
390
F
  0
LAYER
  5
4C
330
2
100
AcDbSymbolTableRecord
100
AcDbLayerTableRecord
  2
Sichtbare_Kanten_TC_020513_DIN_
 70
     0
 62
     7
  6
Continuous
370
    -3
390
F
  0
LAYER
  5
4D
330
2
100
AcDbSymbolTableRecord
100
AcDbLayerTableRecord
  2
Stich_1-Linien_TC_020513_DIN_
 70
     0
 62
     7
  6
Continuous
370
    -3
390
F
  0
LAYER
  5
4E
330
2
100
AcDbSymbolTableRecord
100
AcDbLayerTableRecord
  2
Symbole_TC_020513_DIN_
 70
     0
 62
     7
  6
Continuous
370
    -3
390
F
  0
ENDTAB
  0
TABLE
  2
STYLE
  5
3
330
0
100
AcDbSymbolTable
 70
     4
  0
STYLE
  5
11
330
3
100
AcDbSymbolTableRecord
100
AcDbTextStyleTableRecord
  2
Standard
 70
     0
 40
0.0
 41
1.0
 50
0.0
 71
     0
 42
0.2
  3
txt
  4

  0
STYLE
  5
A3
330
3
100
AcDbSymbolTableRecord
100
AcDbTextStyleTableRecord
  2
CONVERTER_11
 70
     0
 40
0.0
 41
1.2
 50
0.0
 71
     0
 42
0.2
  3
ARIAL.TTF
  4

  0
STYLE
  5
A8
330
3
100
AcDbSymbolTableRecord
100
AcDbTextStyleTableRecord
  2
CONVERTER_12
 70
     0
 40
0.0
 41
1.38
 50
0.0
 71
     0
 42
0.2
  3
ARIAL.TTF
  4

  0
STYLE
  5
57F
330
3
100
AcDbSymbolTableRecord
100
AcDbTextStyleTableRecord
  2
CONVERTER_13
 70
     0
 40
0.0
 41
0.75
 50
0.0
 71
     0
 42
0.2
  3
txt.shx
  4

  0
ENDTAB
  0
TABLE
  2
VIEW
  5
6
330
0
100
AcDbSymbolTable
 70
     0
  0
ENDTAB
  0
TABLE
  2
UCS
  5
7
330
0
100
AcDbSymbolTable
 70
     0
  0
ENDTAB
  0
TABLE
  2
APPID
  5
9
330
0
100
AcDbSymbolTable
 70
     1
  0
APPID
  5
12
330
9
100
AcDbSymbolTableRecord
100
AcDbRegAppTableRecord
  2
ACAD
 70
     0
  0
ENDTAB
  0
TABLE
  2
DIMSTYLE
  5
A
330
0
100
AcDbSymbolTable
 70
    11
100
AcDbDimStyleTable
  0
DIMSTYLE
105
27
330
A
100
AcDbSymbolTableRecord
100
AcDbDimStyleTableRecord
  2
Standard
 70
     0
178
     0
340
11
  0
DIMSTYLE
105
583
102
{ACAD_REACTORS
330
584
102
}
330
A
100
AcDbSymbolTableRecord
100
AcDbDimStyleTableRecord
  2
ME10_DIM_10
 70
     0
 41
2.5
 42
1.0
 44
2.0
 73
     0
 74
     0
 77
     1
 78
    12
140
3.5
147
0.8
172
     1
173
     1
174
     1
175
     1
176
     7
177
     7
271
     2
178
     7
271
     2
340
57F
  0
DIMSTYLE
105
58E
102
{ACAD_REACTORS
330
58F
102
}
330
A
100
AcDbSymbolTableRecord
100
AcDbDimStyleTableRecord
  2
ME10_DIM_11
 70
     0
 41
2.5
 42
1.0
 44
2.0
 73
     0
 74
     0
 77
     1
 78
    12
140
3.5
147
0.8
172
     1
173
     1
174
     1
175
     1
176
     7
177
     7
271
     2
178
     7
271
     2
340
57F
  0
DIMSTYLE
105
599
102
{ACAD_REACTORS
330
59A
102
}
330
A
100
AcDbSymbolTableRecord
100
AcDbDimStyleTableRecord
  2
ME10_DIM_12
 70
     0
 41
2.5
 42
1.0
 44
2.0
 73
     0
 74
     0
 77
     1
 78
    12
140
3.5
147
0.8
172
     1
173
     1
174
     1
175
     1
176
     7
177
     7
271
     2
178
     7
271
     2
340
57F
  0
DIMSTYLE
105
5A4
102
{ACAD_REACTORS
330
5A5
102
}
330
A
100
AcDbSymbolTableRecord
100
AcDbDimStyleTableRecord
  2
ME10_DIM_13
 70
     0
 41
2.5
 42
1.0
 44
2.0
 73
     0
 74
     0
 77
     1
 78
    12
140
3.5
147
0.8
172
     1
173
     1
174
     1
175
     1
176
     7
177
     7
271
     2
178
     7
271
     2
340
57F
  0
DIMSTYLE
105
5AF
102
{ACAD_REACTORS
330
5B0
102
}
330
A
100
AcDbSymbolTableRecord
100
AcDbDimStyleTableRecord
  2
ME10_DIM_14
 70
     0
 41
2.5
 42
1.0
 44
2.0
 73
     0
 74
     0
 77
     1
 78
    12
140
3.5
147
0.8
172
     1
173
     1
174
     1
175
     1
176
     7
177
     7
271
     2
178
     7
271
     2
340
57F
  0
DIMSTYLE
105
5BA
102
{ACAD_REACTORS
330
5BB
102
}
330
A
100
AcDbSymbolTableRecord
100
AcDbDimStyleTableRecord
  2
ME10_DIM_15
 70
     0
 41
2.5
 42
1.0
 44
2.0
 73
     0
 74
     0
 77
     1
 78
    12
140
3.5
147
0.8
172
     1
173
     1
174
     1
175
     1
176
     7
177
     7
271
     0
178
     7
271
     0
340
57F
  0
DIMSTYLE
105
5C5
102
{ACAD_REACTORS
330
5C6
102
}
330
A
100
AcDbSymbolTableRecord
100
AcDbDimStyleTableRecord
  2
ME10_DIM_16
 70
     0
 41
2.5
 42
1.0
 44
2.0
 73
     0
 74
     0
 77
     1
 78
    12
140
3.5
147
0.8
172
     1
173
     1
174
     1
175
     1
176
     7
177
     7
271
     2
178
     7
271
     2
340
57F
  0
DIMSTYLE
105
5D0
102
{ACAD_REACTORS
330
5D1
102
}
330
A
100
AcDbSymbolTableRecord
100
AcDbDimStyleTableRecord
  2
ME10_DIM_17
 70
     0
 41
2.5
 42
1.0
 44
2.0
 73
     0
 74
     0
 77
     1
 78
    12
140
3.5
147
0.8
172
     1
173
     1
174
     1
175
     1
176
     7
177
     7
271
     2
178
     7
271
     2
340
57F
  0
DIMSTYLE
105
5DB
102
{ACAD_REACTORS
330
5DC
102
}
330
A
100
AcDbSymbolTableRecord
100
AcDbDimStyleTableRecord
  2
ME10_DIM_18
 70
     0
 41
2.5
 42
1.0
 44
2.0
 73
     0
 74
     0
 77
     1
 78
    12
140
3.5
147
0.8
172
     1
173
     1
174
     1
175
     1
176
     7
177
     7
271
     2
178
     7
271
     2
340
57F
  0
DIMSTYLE
105
5E6
102
{ACAD_REACTORS
330
5E7
102
}
330
A
100
AcDbSymbolTableRecord
100
AcDbDimStyleTableRecord
  2
ME10_DIM_19
 70
     0
 41
2.5
 42
1.0
 44
2.0
 73
     0
 74
     0
 77
     1
 78
    12
140
3.5
147
0.8
172
     1
173
     1
174
     1
175
     1
176
     7
177
     7
271
     2
178
     7
271
     2
340
57F
  0
ENDTAB
  0
TABLE
  2
BLOCK_RECORD
  5
1
330
0
100
AcDbSymbolTable
 70
    13
  0
BLOCK_RECORD
  5
1F
330
1
100
AcDbSymbolTableRecord
100
AcDbBlockTableRecord
  2
*Model_Space
340
22
  0
BLOCK_RECORD
  5
1B
330
1
100
AcDbSymbolTableRecord
100
AcDbBlockTableRecord
  2
*Paper_Space
340
1E
  0
BLOCK_RECORD
  5
23
330
1
100
AcDbSymbolTableRecord
100
AcDbBlockTableRecord
  2
*Paper_Space0
340
26
  0
BLOCK_RECORD
  5
4F
330
1
100
AcDbSymbolTableRecord
100
AcDbBlockTableRecord
  2
_formato_A4
340
0
102
{BLKREFS
331
53
102
}
  0
BLOCK_RECORD
  5
52
330
1
100
AcDbSymbolTableRecord
100
AcDbBlockTableRecord
  2
A4_oriz
340
0
102
{BLKREFS
331
56
102
}
  0
BLOCK_RECORD
  5
579
330
1
100
AcDbSymbolTableRecord
100
AcDbBlockTableRecord
  2
*D3
340
0
  0
BLOCK_RECORD
  5
585
330
1
100
AcDbSymbolTableRecord
100
AcDbBlockTableRecord
  2
*D4
340
0
  0
BLOCK_RECORD
  5
590
330
1
100
AcDbSymbolTableRecord
100
AcDbBlockTableRecord
  2
*D5
340
0
  0
BLOCK_RECORD
  5
59B
330
1
100
AcDbSymbolTableRecord
100
AcDbBlockTableRecord
  2
*D6
340
0
  0
BLOCK_RECORD
  5
5A6
330
1
100
AcDbSymbolTableRecord
100
AcDbBlockTableRecord
  2
*D7
340
0
  0
BLOCK_RECORD
  5
5B1
330
1
100
AcDbSymbolTableRecord
100
AcDbBlockTableRecord
  2
*D8
340
0
  0
BLOCK_RECORD
  5
5BC
330
1
100
AcDbSymbolTableRecord
100
AcDbBlockTableRecord
  2
*D9
340
0
  0
BLOCK_RECORD
  5
5C7
330
1
100
AcDbSymbolTableRecord
100
AcDbBlockTableRecord
  2
*D10
340
0
  0
BLOCK_RECORD
  5
5D2
330
1
100
AcDbSymbolTableRecord
100
AcDbBlockTableRecord
  2
*D11
340
0
  0
BLOCK_RECORD
  5
5DD
330
1
100
AcDbSymbolTableRecord
100
AcDbBlockTableRecord
  2
*D12
340
0
  0
ENDTAB
  0
ENDSEC
  0
SECTION
  2
BLOCKS
  0
BLOCK
  5
20
330
1F
100
AcDbEntity
  8
0
100
AcDbBlockBegin
  2
*Model_Space
 70
     0
 10
0.0
 20
0.0
 30
0.0
  3
*Model_Space
  1

  0
ENDBLK
  5
21
330
1F
100
AcDbEntity
  8
0
100
AcDbBlockEnd
  0
BLOCK
  5
1C
330
1B
100
AcDbEntity
 67
     1
  8
0
100
AcDbBlockBegin
  2
*Paper_Space
 70
     0
 10
0.0
 20
0.0
 30
0.0
  3
*Paper_Space
  1

  0
ENDBLK
  5
1D
330
1B
100
AcDbEntity
 67
     1
  8
0
100
AcDbBlockEnd
  0
BLOCK
  5
24
330
23
100
AcDbEntity
  8
0
100
AcDbBlockBegin
  2
*Paper_Space0
 70
     0
 10
0.0
 20
0.0
 30
0.0
  3
*Paper_Space0
  1

  0
ENDBLK
  5
25
330
23
100
AcDbEntity
  8
0
100
AcDbBlockEnd
  0
BLOCK
  5
50
330
4F
100
AcDbEntity
  8
0
100
AcDbBlockBegin
  2
_formato_A4
 70
     0
 10
297.0000000000002
 20
0.0
 30
0.0
  3
_formato_A4
  1

  0
LINE
  5
57
330
4F
100
AcDbEntity
  8
1
  6
Continuous
 62
     7
100
AcDbLine
 10
108.0000000000001
 20
9.99999999999986
 30
0.0
 11
138.0000000000001
 21
9.99999999999986
 31
0.0
  0
LINE
  5
58
330
4F
100
AcDbEntity
  8
1
  6
Continuous
 62
     7
100
AcDbLine
 10
108.0000000000001
 20
14.99999999999989
 30
0.0
 11
138.0000000000001
 21
14.99999999999989
 31
0.0
  0
LINE
  5
59
330
4F
100
AcDbEntity
  8
1
  6
Continuous
 62
     7
100
AcDbLine
 10
248.0000000000002
 20
20.0
 30
0.0
 11
248.0000000000002
 21
5.0
 31
0.0
  0
LINE
  5
5A
330
4F
100
AcDbEntity
  8
1
  6
Continuous
 62
     7
100
AcDbLine
 10
265.3526013774855
 20
20.0
 30
0.0
 11
265.3526013774855
 21
5.0
 31
0.0
  0
LINE
  5
5B
330
4F
100
AcDbEntity
  8
1
  6
Continuous
 62
     7
100
AcDbLine
 10
138.0000000000001
 20
20.0
 30
0.0
 11
138.0000000000001
 21
5.0
 31
0.0
  0
LINE
  5
5C
330
4F
100
AcDbEntity
  8
1
  6
Continuous
 62
     7
100
AcDbLine
 10
148.4999999999997
 20
210.0000000000001
 30
0.0
 11
148.4999999999997
 21
195.0000000000001
 31
0.0
  0
LINE
  5
5D
330
4F
100
AcDbEntity
  8
1
  6
Continuous
 62
     7
100
AcDbLine
 10
0.0
 20
0.0
 30
0.0
 11
297.0000000000002
 21
0.0
 31
0.0
  0
LINE
  5
5E
330
4F
100
AcDbEntity
  8
1
  6
Continuous
 62
     7
100
AcDbLine
 10
0.0
 20
210.0000000000001
 30
0.0
 11
0.0
 21
0.0
 31
0.0
  0
LINE
  5
5F
330
4F
100
AcDbEntity
  8
1
  6
Continuous
 62
     7
100
AcDbLine
 10
297.0000000000002
 20
210.0000000000001
 30
0.0
 11
0.0
 21
210.0000000000001
 31
0.0
  0
LINE
  5
60
330
4F
100
AcDbEntity
  8
1
  6
Continuous
 62
     7
100
AcDbLine
 10
297.0000000000002
 20
0.0
 30
0.0
 11
297.0000000000002
 21
210.0000000000001
 31
0.0
  0
LINE
  5
61
330
4F
100
AcDbEntity
  8
1
  6
Continuous
 62
     7
100
AcDbLine
 10
4.99999999999989
 20
5.0
 30
0.0
 11
292.0000000000002
 21
5.0
 31
0.0
  0
LINE
  5
62
330
4F
100
AcDbEntity
  8
1
  6
Continuous
 62
     7
100
AcDbLine
 10
292.0000000000002
 20
5.0
 30
0.0
 11
292.0000000000002
 21
189.0
 31
0.0
  0
LINE
  5
63
330
4F
100
AcDbEntity
  8
1
  6
Continuous
 62
     7
100
AcDbLine
 10
292.0000000000002
 20
189.0
 30
0.0
 11
4.99999999999989
 21
189.0
 31
0.0
  0
LINE
  5
64
102
{ACAD_REACTORS
330
B1
102
}
330
4F
100
AcDbEntity
  8
1
  6
Continuous
 62
     7
100
AcDbLine
 10
281.0096340220762
 20
10.07749983983263
 30
0.0
 11
281.0096340220762
 21
14.92250016016737
 31
0.0
  0
LINE
  5
65
102
{ACAD_REACTORS
330
AE
102
}
330
4F
100
AcDbEntity
  8
1
  6
Continuous
 62
     7
100
AcDbLine
 10
279.6763006887429
 20
12.5
 30
0.0
 11
279.6763006887429
 21
14.23205080756884
 31
0.0
  0
LINE
  5
66
102
{ACAD_REACTORS
330
AE
102
}
330
4F
100
AcDbEntity
  8
1
  6
Continuous
 62
     7
100
AcDbLine
 10
279.6763006887429
 20
14.23205080756884
 30
0.0
 11
278.8206382560401
 21
12.75
 31
0.0
  0
LINE
  5
67
102
{ACAD_REACTORS
330
AE
102
}
330
4F
100
AcDbEntity
  8
1
  6
Continuous
 62
     7
100
AcDbLine
 10
278.5319631214454
 20
12.75
 30
0.0
 11
277.6763006887429
 21
14.23205080756884
 31
0.0
  0
LINE
  5
68
102
{ACAD_REACTORS
330
AE
102
}
330
4F
100
AcDbEntity
  8
1
  6
Continuous
 62
     7
100
AcDbLine
 10
277.6763006887429
 20
14.23205080756884
 30
0.0
 11
277.6763006887429
 21
12.5
 31
0.0
  0
LINE
  5
69
330
4F
100
AcDbEntity
  8
1
  6
Continuous
 62
     7
100
AcDbLine
 10
270.2598654136012
 20
12.64436426434133
 30
0.0
 11
278.6763006887429
 21
17.5
 31
0.0
  0
LINE
  5
6A
330
4F
100
AcDbEntity
  8
1
  6
Continuous
 62
     7
100
AcDbLine
 10
278.6763006887429
 20
17.5
 30
0.0
 11
287.0927359638843
 21
12.64436426434133
 31
0.0
  0
LINE
  5
6B
330
4F
100
AcDbEntity
  8
1
  6
Continuous
 62
     7
100
AcDbLine
 10
287.0927359638843
 20
12.35563573565855
 30
0.0
 11
278.6763006887429
 21
7.5
 31
0.0
  0
LINE
  5
6C
330
4F
100
AcDbEntity
  8
1
  6
Continuous
 62
     7
100
AcDbLine
 10
278.6763006887429
 20
7.5
 30
0.0
 11
270.2598654136012
 21
12.35563573565855
 31
0.0
  0
LINE
  5
6D
102
{ACAD_REACTORS
330
AE
102
}
330
4F
100
AcDbEntity
  8
1
  6
Continuous
 62
     7
100
AcDbLine
 10
277.0096340220761
 20
12.5
 30
0.0
 11
277.0096340220761
 21
15.73121731203457
 31
0.0
  0
LINE
  5
6E
102
{ACAD_REACTORS
330
AE
102
}
330
4F
100
AcDbEntity
  8
1
  6
Continuous
 62
     7
100
AcDbLine
 10
277.5040677056995
 20
15.86370041827229
 30
0.0
 11
278.6763006887429
 21
13.83333333333326
 31
0.0
  0
LINE
  5
6F
102
{ACAD_REACTORS
330
AE
102
}
330
4F
100
AcDbEntity
  8
1
  6
Continuous
 62
     7
100
AcDbLine
 10
277.0096340220761
 20
12.5
 30
0.0
 11
277.0096340220761
 21
10.84758507263291
 31
0.0
  0
LINE
  5
70
102
{ACAD_REACTORS
330
AE
102
}
330
4F
100
AcDbEntity
  8
1
  6
Continuous
 62
     7
100
AcDbLine
 10
277.6763006887429
 20
10.84758507263291
 30
0.0
 11
277.6763006887429
 21
12.5
 31
0.0
  0
LINE
  5
71
102
{ACAD_REACTORS
330
AE
102
}
330
4F
100
AcDbEntity
  8
1
  6
Continuous
 62
     7
100
AcDbLine
 10
279.6763006887429
 20
12.5
 30
0.0
 11
279.6763006887429
 21
9.30826907060179
 31
0.0
  0
LINE
  5
72
102
{ACAD_REACTORS
330
AE
102
}
330
4F
100
AcDbEntity
  8
1
  6
Continuous
 62
     7
100
AcDbLine
 10
280.3429673554094
 20
9.30826907060179
 30
0.0
 11
280.3429673554094
 21
15.73121731203457
 31
0.0
  0
LINE
  5
73
102
{ACAD_REACTORS
330
AE
102
}
330
4F
100
AcDbEntity
  8
1
  6
Continuous
 62
     7
100
AcDbLine
 10
279.848533671786
 20
15.86370041827229
 30
0.0
 11
278.6763006887429
 21
13.83333333333326
 31
0.0
  0
LINE
  5
74
102
{ACAD_REACTORS
330
AF
102
}
330
4F
100
AcDbEntity
  8
1
  6
Continuous
 62
     7
100
AcDbLine
 10
275.6763006887429
 20
10.27002114803258
 30
0.0
 11
275.6763006887429
 21
14.92250016016737
 31
0.0
  0
LINE
  5
75
102
{ACAD_REACTORS
330
AF
102
}
330
4F
100
AcDbEntity
  8
1
  6
Continuous
 62
     7
100
AcDbLine
 10
276.3429673554094
 20
14.92250016016737
 30
0.0
 11
276.3429673554094
 21
10.2700211480327
 31
0.0
  0
LINE
  5
76
102
{ACAD_REACTORS
330
AF
102
}
330
4F
100
AcDbEntity
  8
1
  6
Continuous
 62
     7
100
AcDbLine
 10
276.3429673554094
 20
10.2700211480327
 30
0.0
 11
278.5095415065727
 21
9.0200745223616
 31
0.0
  0
LINE
  5
77
102
{ACAD_REACTORS
330
AF
102
}
330
4F
100
AcDbEntity
  8
1
  6
Continuous
 62
     7
100
AcDbLine
 10
278.1763932042463
 20
8.4426174649958
 30
0.0
 11
276.0098190530832
 21
9.6925640906669
 31
0.0
  0
LINE
  5
78
102
{ACAD_REACTORS
330
B0
102
}
330
4F
100
AcDbEntity
  8
1
  6
Continuous
 62
     7
100
AcDbLine
 10
275.0096340220761
 20
14.15326939093666
 30
0.0
 11
275.0096340220761
 21
11.0392519172633
 31
0.0
  0
LINE
  5
79
102
{ACAD_REACTORS
330
B0
102
}
330
4F
100
AcDbEntity
  8
1
  6
Continuous
 62
     7
100
AcDbLine
 10
275.0096340220761
 20
11.0392519172633
 30
0.0
 11
275.0096340220761
 21
10.84673060906323
 31
0.0
  0
LINE
  5
7A
102
{ACAD_REACTORS
330
B0
102
}
330
4F
100
AcDbEntity
  8
1
  6
Continuous
 62
     7
100
AcDbLine
 10
274.3429673554094
 20
10.84673060906323
 30
0.0
 11
274.3429673554094
 21
14.15326939093666
 31
0.0
  0
LINE
  5
7B
102
{ACAD_REACTORS
330
B1
102
}
330
4F
100
AcDbEntity
  8
1
  6
Continuous
 62
     7
100
AcDbLine
 10
281.5095415065727
 20
15.21122868885027
 30
0.0
 11
282.842874839906
 21
14.44199791961944
 31
0.0
  0
LINE
  5
7C
102
{ACAD_REACTORS
330
B1
102
}
330
4F
100
AcDbEntity
  8
1
  6
Continuous
 62
     7
100
AcDbLine
 10
282.5097265375795
 20
13.86454086225376
 30
0.0
 11
281.6763006887429
 21
14.34536346735195
 31
0.0
  0
LINE
  5
7D
102
{ACAD_REACTORS
330
B1
102
}
330
4F
100
AcDbEntity
  8
1
  6
Continuous
 62
     7
100
AcDbLine
 10
281.6763006887429
 20
14.34536346735195
 30
0.0
 11
281.6763006887429
 21
12.83333333333326
 31
0.0
  0
LINE
  5
7E
102
{ACAD_REACTORS
330
B1
102
}
330
4F
100
AcDbEntity
  8
1
  6
Continuous
 62
     7
100
AcDbLine
 10
281.6763006887429
 20
12.83333333333326
 30
0.0
 11
282.6763006887429
 21
12.83333333333326
 31
0.0
  0
LINE
  5
7F
102
{ACAD_REACTORS
330
B1
102
}
330
4F
100
AcDbEntity
  8
1
  6
Continuous
 62
     7
100
AcDbLine
 10
282.6763006887429
 20
12.16666666666663
 30
0.0
 11
281.6763006887429
 21
12.16666666666663
 31
0.0
  0
LINE
  5
80
102
{ACAD_REACTORS
330
B1
102
}
330
4F
100
AcDbEntity
  8
1
  6
Continuous
 62
     7
100
AcDbLine
 10
281.6763006887429
 20
12.16666666666663
 30
0.0
 11
281.6763006887429
 21
10.65463653264794
 31
0.0
  0
LINE
  5
81
102
{ACAD_REACTORS
330
B1
102
}
330
4F
100
AcDbEntity
  8
1
  6
Continuous
 62
     7
100
AcDbLine
 10
281.6763006887429
 20
10.65463653264794
 30
0.0
 11
282.5097265375795
 21
11.13545913774624
 31
0.0
  0
LINE
  5
82
102
{ACAD_REACTORS
330
B1
102
}
330
4F
100
AcDbEntity
  8
1
  6
Continuous
 62
     7
100
AcDbLine
 10
282.842874839906
 20
10.55800208038033
 30
0.0
 11
281.5095415065727
 21
9.78877131114973
 31
0.0
  0
LINE
  5
83
330
4F
100
AcDbEntity
  8
1
  6
Continuous
 62
     7
100
AcDbLine
 10
108.0000000000001
 20
24.99999999999999
 30
0.0
 11
292.0000000000002
 21
24.99999999999999
 31
0.0
  0
LINE
  5
84
330
4F
100
AcDbEntity
  8
1
  6
Continuous
 62
     7
100
AcDbLine
 10
115.0000000000001
 20
20.0
 30
0.0
 11
115.0000000000001
 21
24.99999999999999
 31
0.0
  0
LINE
  5
85
330
4F
100
AcDbEntity
  8
1
  6
Continuous
 62
     7
100
AcDbLine
 10
133.0000000000002
 20
20.0
 30
0.0
 11
133.0000000000002
 21
24.99999999999999
 31
0.0
  0
LINE
  5
86
330
4F
100
AcDbEntity
  8
1
  6
Continuous
 62
     7
100
AcDbLine
 10
108.0000000000001
 20
29.99999999999999
 30
0.0
 11
292.0000000000002
 21
29.99999999999999
 31
0.0
  0
LINE
  5
87
330
4F
100
AcDbEntity
  8
1
  6
Continuous
 62
     7
100
AcDbLine
 10
115.0000000000001
 20
24.99999999999999
 30
0.0
 11
115.0000000000001
 21
29.99999999999999
 31
0.0
  0
LINE
  5
88
330
4F
100
AcDbEntity
  8
1
  6
Continuous
 62
     7
100
AcDbLine
 10
133.0000000000002
 20
24.99999999999999
 30
0.0
 11
133.0000000000002
 21
29.99999999999999
 31
0.0
  0
LINE
  5
89
330
4F
100
AcDbEntity
  8
1
  6
Continuous
 62
     7
100
AcDbLine
 10
108.0000000000001
 20
34.99999999999999
 30
0.0
 11
292.0000000000002
 21
34.99999999999999
 31
0.0
  0
LINE
  5
8A
330
4F
100
AcDbEntity
  8
1
  6
Continuous
 62
     7
100
AcDbLine
 10
115.0000000000001
 20
29.99999999999999
 30
0.0
 11
115.0000000000001
 21
34.99999999999999
 31
0.0
  0
LINE
  5
8B
330
4F
100
AcDbEntity
  8
1
  6
Continuous
 62
     7
100
AcDbLine
 10
133.0000000000002
 20
29.99999999999999
 30
0.0
 11
133.0000000000002
 21
34.99999999999999
 31
0.0
  0
LINE
  5
8C
330
4F
100
AcDbEntity
  8
1
  6
Continuous
 62
     7
100
AcDbLine
 10
108.0000000000001
 20
39.99999999999999
 30
0.0
 11
292.0000000000002
 21
39.99999999999999
 31
0.0
  0
LINE
  5
8D
330
4F
100
AcDbEntity
  8
1
  6
Continuous
 62
     7
100
AcDbLine
 10
115.0000000000001
 20
34.99999999999999
 30
0.0
 11
115.0000000000001
 21
39.99999999999999
 31
0.0
  0
LINE
  5
8E
330
4F
100
AcDbEntity
  8
1
  6
Continuous
 62
     7
100
AcDbLine
 10
133.0000000000002
 20
34.99999999999999
 30
0.0
 11
133.0000000000002
 21
39.99999999999999
 31
0.0
  0
LINE
  5
8F
330
4F
100
AcDbEntity
  8
1
  6
Continuous
 62
     7
100
AcDbLine
 10
4.99999999999989
 20
189.0
 30
0.0
 11
4.99999999999989
 21
5.0
 31
0.0
  0
LINE
  5
90
330
4F
100
AcDbEntity
  8
1
  6
Continuous
 62
     7
100
AcDbLine
 10
108.0000000000001
 20
20.0
 30
0.0
 11
292.0000000000002
 21
20.0
 31
0.0
  0
LINE
  5
91
330
4F
100
AcDbEntity
  8
1
  6
Continuous
 62
     7
100
AcDbLine
 10
108.0000000000001
 20
4.99999999999988
 30
0.0
 11
108.0000000000001
 21
39.99999999999999
 31
0.0
  0
ARC
  5
92
102
{ACAD_REACTORS
330
AE
102
}
330
4F
100
AcDbEntity
  8
1
  6
Continuous
 62
     7
100
AcDbCircle
 10
277.2746002345513
 20
15.73121731203457
 30
0.0
 40
0.2649662124753838
100
AcDbArc
 50
30.00000000000692
 51
180.0
  0
ARC
  5
93
102
{ACAD_REACTORS
330
AE
102
}
330
4F
100
AcDbEntity
  8
1
  6
Continuous
 62
     7
100
AcDbCircle
 10
277.3429673554094
 20
10.84758507263291
 30
0.0
 40
0.3333333333333144
100
AcDbArc
 50
180.0
 51
0.0
  0
ARC
  5
94
102
{ACAD_REACTORS
330
AE
102
}
330
4F
100
AcDbEntity
  8
1
  6
Continuous
 62
     7
100
AcDbCircle
 10
280.0096340220762
 20
9.30826907060179
 30
0.0
 40
0.3333333333333144
100
AcDbArc
 50
180.0
 51
0.0
  0
ARC
  5
95
102
{ACAD_REACTORS
330
AE
102
}
330
4F
100
AcDbEntity
  8
1
  6
Continuous
 62
     7
100
AcDbCircle
 10
280.0780011429342
 20
15.73121731203457
 30
0.0
 40
0.2649662124752012
100
AcDbArc
 50
0.0
 51
149.9999999999931
  0
ARC
  5
96
102
{ACAD_REACTORS
330
AF
102
}
330
4F
100
AcDbEntity
  8
1
  6
Continuous
 62
     7
100
AcDbCircle
 10
276.0096340220761
 20
14.92250016016737
 30
0.0
 40
0.3333333333333144
100
AcDbArc
 50
0.0
 51
180.0
  0
ARC
  5
97
102
{ACAD_REACTORS
330
AF
102
}
330
4F
100
AcDbEntity
  8
1
  6
Continuous
 62
     7
100
AcDbCircle
 10
278.3429673554094
 20
8.7313459936787
 30
0.0
 40
0.3333333333333202
100
AcDbArc
 50
240.0183606311669
 51
60.01836063114089
  0
ARC
  5
98
102
{ACAD_REACTORS
330
B0
102
}
330
4F
100
AcDbEntity
  8
1
  6
Continuous
 62
     7
100
AcDbCircle
 10
274.6763006887429
 20
14.15326939093666
 30
0.0
 40
0.3333333333332007
100
AcDbArc
 50
0.0
 51
180.0
  0
ARC
  5
99
102
{ACAD_REACTORS
330
B0
102
}
330
4F
100
AcDbEntity
  8
1
  6
Continuous
 62
     7
100
AcDbCircle
 10
274.6763006887429
 20
10.84673060906323
 30
0.0
 40
0.3333333333334849
100
AcDbArc
 50
180.0
 51
0.0
  0
ARC
  5
9A
102
{ACAD_REACTORS
330
B1
102
}
330
4F
100
AcDbEntity
  8
1
  6
Continuous
 62
     7
100
AcDbCircle
 10
282.6763006887429
 20
14.15326939093666
 30
0.0
 40
0.3333333333334607
100
AcDbArc
 50
240.0183606311244
 51
60.01836063115638
  0
ARC
  5
9B
102
{ACAD_REACTORS
330
B1
102
}
330
4F
100
AcDbEntity
  8
1
  6
Continuous
 62
     7
100
AcDbCircle
 10
282.6763006887429
 20
12.5
 30
0.0
 40
0.3333333333333695
100
AcDbArc
 50
270.0
 51
90.0
  0
ARC
  5
9C
102
{ACAD_REACTORS
330
B1
102
}
330
4F
100
AcDbEntity
  8
1
  6
Continuous
 62
     7
100
AcDbCircle
 10
282.6763006887429
 20
10.84673060906323
 30
0.0
 40
0.3333333333333172
100
AcDbArc
 50
299.9816393688334
 51
119.9816393688661
  0
ARC
  5
9D
102
{ACAD_REACTORS
330
AE
102
}
330
4F
100
AcDbEntity
  8
1
  6
Continuous
 62
     7
100
AcDbCircle
 10
278.6763006887429
 20
12.83333333333326
 30
0.0
 40
0.166666666666709
100
AcDbArc
 50
209.9999999999622
 51
329.999999999989
  0
ARC
  5
9E
102
{ACAD_REACTORS
330
AF
102
}
330
4F
100
AcDbEntity
  8
1
  6
Continuous
 62
     7
100
AcDbCircle
 10
276.3429673554094
 20
10.2700211480327
 30
0.0
 40
0.6666666666665151
100
AcDbArc
 50
180.0000000000104
 51
240.0183606311668
  0
ARC
  5
9F
330
4F
100
AcDbEntity
  8
1
  6
Continuous
 62
     7
100
AcDbCircle
 10
270.343152489183
 20
12.5
 30
0.0
 40
0.1666666666666975
100
AcDbArc
 50
119.9816393689385
 51
240.0183606310819
  0
ARC
  5
A0
330
4F
100
AcDbEntity
  8
1
  6
Continuous
 62
     7
100
AcDbCircle
 10
287.0094488883028
 20
12.5
 30
0.0
 40
0.1666666666666302
100
AcDbArc
 50
299.9816393688164
 51
60.01836063116308
  0
ARC
  5
A1
102
{ACAD_REACTORS
330
B1
102
}
330
4F
100
AcDbEntity
  8
1
  6
Continuous
 62
     7
100
AcDbCircle
 10
281.3429673554094
 20
14.92250016016737
 30
0.0
 40
0.3333333333334024
100
AcDbArc
 50
60.01836063114121
 51
180.0
  0
ARC
  5
A2
102
{ACAD_REACTORS
330
B1
102
}
330
4F
100
AcDbEntity
  8
1
  6
Continuous
 62
     7
100
AcDbCircle
 10
281.3429673554094
 20
10.07749983983263
 30
0.0
 40
0.3333333333332007
100
AcDbArc
 50
180.0
 51
299.9816393688589
  0
MTEXT
  5
A4
330
4F
100
AcDbEntity
  8
1
 62
     7
100
AcDbMText
 10
119.6000000000001
 20
7.49999999999987
 30
0.0
 40
3.0
 41
0.0
 71
     4
 72
     1
  1
Radice
  7
CONVERTER_11
 73
     1
 44
1.32052821128451
  0
MTEXT
  5
A5
330
4F
100
AcDbEntity
  8
1
 62
     7
100
AcDbMText
 10
109.0000000000001
 20
7.49999999999987
 30
0.0
 40
3.0
 41
0.0
 71
     4
 72
     1
  1
Sign.
  7
CONVERTER_11
 73
     1
 44
1.32052821128451
  0
MTEXT
  5
A6
330
4F
100
AcDbEntity
  8
1
 62
     7
100
AcDbMText
 10
119.6000000000001
 20
12.49999999999987
 30
0.0
 40
3.0
 41
0.0
 71
     4
 72
     1
  1
19/06/14
  7
CONVERTER_11
 73
     1
 44
1.32052821128451
  0
MTEXT
  5
A7
330
4F
100
AcDbEntity
  8
1
 62
     7
100
AcDbMText
 10
109.0000000000001
 20
12.49999999999987
 30
0.0
 40
3.0
 41
0.0
 71
     4
 72
     1
  1
Date
  7
CONVERTER_11
 73
     1
 44
1.32052821128451
  0
MTEXT
  5
A9
330
4F
100
AcDbEntity
  8
1
 62
     7
100
AcDbMText
 10
123.0000000000001
 20
17.49999999999994
 30
0.0
 40
2.5
 41
0.0
 71
     5
 72
     1
  1
dimensions in mm
  7
CONVERTER_12
 73
     1
 44
0.60024009603842
  0
MTEXT
  5
AA
330
4F
100
AcDbEntity
  8
1
 62
     7
100
AcDbMText
 10
151.4999999999997
 20
194.0000000000001
 30
0.0
 40
4.0
 41
0.0
 71
     5
 72
     1
  1
Diritti riservati      All rights reserved
  7
CONVERTER_11
 73
     1
 44
1.32052821128451
  0
MTEXT
  5
AB
330
4F
100
AcDbEntity
  8
1
 62
     7
100
AcDbMText
 10
144.2763006887428
 20
12.5
 30
0.0
 40
4.5
 41
0.0
 71
     4
 72
     1
  1
JCVP 06 LP\PSurface mounting housing, 1 lever + cover, PG16 - JEI
  7
CONVERTER_11
 73
     1
 44
0.90036014405762
  0
MTEXT
  5
AC
330
4F
100
AcDbEntity
  8
1
 62
     7
100
AcDbMText
 10
256.6763006887429
 20
16.26063942075598
 30
0.0
 40
3.0
 41
0.0
 71
     5
 72
     1
  1
Scale
  7
CONVERTER_11
 73
     1
 44
1.32052821128451
  0
MTEXT
  5
AD
330
4F
100
AcDbEntity
  8
1
 62
     7
100
AcDbMText
 10
256.6763006887429
 20
10.06063942075605
 30
0.0
 40
4.5
 41
0.0
 71
     5
 72
     1
  1
1:1
  7
CONVERTER_11
 73
     1
 44
1.32052821128451
  0
HATCH
  5
AE
330
4F
100
AcDbEntity
  8
1
  6
Continuous
 62
     7
100
AcDbHatch
 10
0.0
 20
0.0
 30
0.0
210
0.0
220
0.0
230
1.0
  2
SOLID
 70
     1
 71
     1
 91
        1
 92
        1
 93
       16
 72
     2
 10
277.2746002345513
 20
15.73121731203457
 40
0.2649662124753838
 50
30.00000000000692
 51
180.0
 73
     1
 72
     1
 10
277.0096340220761
 20
15.73121731203457
 11
277.0096340220761
 21
12.5
 72
     1
 10
277.0096340220761
 20
12.5
 11
277.0096340220761
 21
10.84758507263291
 72
     2
 10
277.3429673554094
 20
10.84758507263291
 40
0.3333333333333144
 50
180.0
 51
360.0
 73
     1
 72
     1
 10
277.6763006887429
 20
10.84758507263291
 11
277.6763006887429
 21
12.5
 72
     1
 10
277.6763006887429
 20
12.5
 11
277.6763006887429
 21
14.23205080756884
 72
     1
 10
277.6763006887429
 20
14.23205080756884
 11
278.5319631214454
 21
12.75
 72
     2
 10
278.6763006887429
 20
12.83333333333326
 40
0.166666666666709
 50
209.9999999999622
 51
329.999999999989
 73
     1
 72
     1
 10
278.8206382560401
 20
12.75
 11
279.6763006887429
 21
14.23205080756884
 72
     1
 10
279.6763006887429
 20
14.23205080756884
 11
279.6763006887429
 21
12.5
 72
     1
 10
279.6763006887429
 20
12.5
 11
279.6763006887429
 21
9.308269070601789
 72
     2
 10
280.0096340220762
 20
9.308269070601789
 40
0.3333333333333144
 50
180.0
 51
360.0
 73
     1
 72
     1
 10
280.3429673554094
 20
9.308269070601789
 11
280.3429673554094
 21
15.73121731203457
 72
     2
 10
280.0780011429342
 20
15.73121731203457
 40
0.2649662124752012
 50
0.0
 51
149.9999999999931
 73
     1
 72
     1
 10
279.848533671786
 20
15.86370041827229
 11
278.6763006887429
 21
13.83333333333326
 72
     1
 10
278.6763006887429
 20
13.83333333333326
 11
277.5040677056995
 21
15.86370041827229
 97
       16
330
73
330
95
330
72
330
94
330
71
330
65
330
66
330
9D
330
67
330
68
330
70
330
93
330
6F
330
6D
330
92
330
6E
 75
     0
 76
     1
 98
        1
 10
0.0
 20
0.0
  0
HATCH
  5
AF
330
4F
100
AcDbEntity
  8
1
  6
Continuous
 62
     7
100
AcDbHatch
 10
0.0
 20
0.0
 30
0.0
210
0.0
220
0.0
230
1.0
  2
SOLID
 70
     1
 71
     1
 91
        1
 92
        1
 93
        7
 72
     1
 10
276.3429673554094
 20
14.92250016016737
 11
276.3429673554094
 21
10.2700211480327
 72
     1
 10
276.3429673554094
 20
10.2700211480327
 11
278.5095415065727
 21
9.020074522361597
 72
     2
 10
278.3429673554094
 20
8.731345993678701
 40
0.3333333333333202
 50
299.9816393688591
 51
479.9816393688332
 73
     0
 72
     1
 10
278.1763932042463
 20
8.442617464995799
 11
276.0098190530832
 21
9.692564090666899
 72
     2
 10
276.3429673554094
 20
10.2700211480327
 40
0.6666666666665151
 50
119.9816393688333
 51
179.9999999999896
 73
     0
 72
     1
 10
275.6763006887429
 20
10.27002114803258
 11
275.6763006887429
 21
14.92250016016737
 72
     2
 10
276.0096340220761
 20
14.92250016016737
 40
0.3333333333333144
 50
180.0
 51
360.0
 73
     0
 97
        7
330
75
330
76
330
97
330
77
330
9E
330
74
330
96
 75
     0
 76
     1
 98
        1
 10
0.0
 20
0.0
  0
HATCH
  5
B0
330
4F
100
AcDbEntity
  8
1
  6
Continuous
 62
     7
100
AcDbHatch
 10
0.0
 20
0.0
 30
0.0
210
0.0
220
0.0
230
1.0
  2
SOLID
 70
     1
 71
     1
 91
        1
 92
        1
 93
        5
 72
     1
 10
275.0096340220761
 20
14.15326939093666
 11
275.0096340220761
 21
11.0392519172633
 72
     1
 10
275.0096340220761
 20
11.0392519172633
 11
275.0096340220761
 21
10.84673060906323
 72
     2
 10
274.6763006887429
 20
10.84673060906323
 40
0.3333333333334849
 50
0.0
 51
180.0
 73
     0
 72
     1
 10
274.3429673554094
 20
10.84673060906323
 11
274.3429673554094
 21
14.15326939093666
 72
     2
 10
274.6763006887429
 20
14.15326939093666
 40
0.3333333333332007
 50
180.0
 51
360.0
 73
     0
 97
        5
330
78
330
79
330
99
330
7A
330
98
 75
     0
 76
     1
 98
        1
 10
0.0
 20
0.0
  0
HATCH
  5
B1
330
4F
100
AcDbEntity
  8
1
  6
Continuous
 62
     7
100
AcDbHatch
 10
0.0
 20
0.0
 30
0.0
210
0.0
220
0.0
230
1.0
  2
SOLID
 70
     1
 71
     1
 91
        1
 92
        1
 93
       14
 72
     1
 10
282.5097265375795
 20
13.86454086225376
 11
281.6763006887429
 21
14.34536346735195
 72
     1
 10
281.6763006887429
 20
14.34536346735195
 11
281.6763006887429
 21
12.83333333333326
 72
     1
 10
281.6763006887429
 20
12.83333333333326
 11
282.6763006887429
 21
12.83333333333326
 72
     2
 10
282.6763006887429
 20
12.5
 40
0.3333333333333695
 50
270.0
 51
450.0
 73
     0
 72
     1
 10
282.6763006887429
 20
12.16666666666663
 11
281.6763006887429
 21
12.16666666666663
 72
     1
 10
281.6763006887429
 20
12.16666666666663
 11
281.6763006887429
 21
10.65463653264794
 72
     1
 10
281.6763006887429
 20
10.65463653264794
 11
282.5097265375795
 21
11.13545913774624
 72
     2
 10
282.6763006887429
 20
10.84673060906323
 40
0.3333333333333172
 50
240.0183606311339
 51
420.0183606311665
 73
     0
 72
     1
 10
282.842874839906
 20
10.55800208038033
 11
281.5095415065727
 21
9.78877131114973
 72
     2
 10
281.3429673554094
 20
10.07749983983263
 40
0.3333333333332007
 50
60.01836063114119
 51
180.0
 73
     0
 72
     1
 10
281.0096340220762
 20
10.07749983983263
 11
281.0096340220762
 21
14.92250016016737
 72
     2
 10
281.3429673554094
 20
14.92250016016737
 40
0.3333333333334024
 50
180.0
 51
299.9816393688589
 73
     0
 72
     1
 10
281.5095415065727
 20
15.21122868885027
 11
282.842874839906
 21
14.44199791961944
 72
     2
 10
282.6763006887429
 20
14.15326939093666
 40
0.3333333333334607
 50
299.9816393688436
 51
479.9816393688756
 73
     0
 97
       14
330
7B
330
A1
330
64
330
A2
330
82
330
9C
330
81
330
80
330
7F
330
9B
330
7E
330
7D
330
7C
330
9A
 75
     0
 76
     1
 98
        1
 10
0.0
 20
0.0
  0
ENDBLK
  5
51
330
4F
100
AcDbEntity
  8
0
100
AcDbBlockEnd
  0
BLOCK
  5
54
330
52
100
AcDbEntity
  8
0
100
AcDbBlockBegin
  2
A4_oriz
 70
     0
 10
297.0000000000002
 20
0.0
 30
0.0
  3
A4_oriz
  1

  0
INSERT
  5
53
330
52
100
AcDbEntity
  8
1
100
AcDbBlockReference
  2
_formato_A4
 10
297.0000000000002
 20
0.0
 30
0.0
  0
ENDBLK
  5
55
330
52
100
AcDbEntity
  8
0
100
AcDbBlockEnd
  0
BLOCK
  5
581
330
579
100
AcDbEntity
  8
0
100
AcDbBlockBegin
  2
*D3
 70
     1
 10
0.0
 20
0.0
 30
0.0
  3
*D3
  1

  0
LINE
  5
57A
330
579
100
AcDbEntity
  8
Bemaßungen_TC_020513_DIN_
  6
Continuous
 62
     7
100
AcDbLine
 10
141.7311830254902
 20
64.3777947364343
 30
0.0
 11
141.7311830254902
 21
87.86179473643429
 31
0.0
  0
LINE
  5
57B
330
579
100
AcDbEntity
  8
Bemaßungen_TC_020513_DIN_
  6
Continuous
 62
     7
100
AcDbLine
 10
132.7311830254902
 20
87.86179473643429
 30
0.0
 11
143.7311830254902
 21
87.86179473643429
 31
0.0
  0
LINE
  5
57C
330
579
100
AcDbEntity
  8
Bemaßungen_TC_020513_DIN_
  6
Continuous
 62
     7
100
AcDbLine
 10
132.7311830254902
 20
64.3777947364343
 30
0.0
 11
143.7311830254902
 21
64.3777947364343
 31
0.0
  0
SOLID
  5
57D
330
579
100
AcDbEntity
  8
Bemaßungen_TC_020513_DIN_
 62
     7
100
AcDbTrace
 10
142.0603142694587
 20
85.36179473643429
 30
0.0
 11
141.4020517815217
 21
85.36179473643429
 31
0.0
 12
141.7311830254902
 22
87.86179473643429
 32
0.0
 13
141.7311830254902
 23
87.86179473643429
 33
0.0
  0
SOLID
  5
57E
330
579
100
AcDbEntity
  8
Bemaßungen_TC_020513_DIN_
 62
     7
100
AcDbTrace
 10
141.4020517815217
 20
66.8777947364343
 30
0.0
 11
142.0603142694587
 21
66.8777947364343
 31
0.0
 12
141.7311830254902
 22
64.3777947364343
 32
0.0
 13
141.7311830254902
 23
64.3777947364343
 33
0.0
  0
MTEXT
  5
580
330
579
100
AcDbEntity
  8
Bemaßungen_TC_020513_DIN_
 62
     7
100
AcDbMText
 10
138.7222583446651
 20
71.82901597336016
 30
0.0
 40
3.5
 41
0.0
 71
     7
 72
     1
  1
PG16
  7
CONVERTER_13
 11
0.0
 21
1.0
 31
0.0
 73
     1
 44
0.45454545454545
  0
ENDBLK
  5
582
330
579
100
AcDbEntity
  8
0
100
AcDbBlockEnd
  0
BLOCK
  5
58C
330
585
100
AcDbEntity
  8
0
100
AcDbBlockBegin
  2
*D4
 70
     1
 10
0.0
 20
0.0
 30
0.0
  3
*D4
  1

  0
LINE
  5
586
330
585
100
AcDbEntity
  8
Bemaßungen_TC_020513_DIN_
  6
Continuous
 62
     7
100
AcDbLine
 10
125.7311830254898
 20
51.53979473643424
 30
0.0
 11
55.73118302548982
 21
51.53979473643424
 31
0.0
  0
LINE
  5
587
330
585
100
AcDbEntity
  8
Bemaßungen_TC_020513_DIN_
  6
Continuous
 62
     7
100
AcDbLine
 10
55.73118302548982
 20
56.03979473643426
 30
0.0
 11
55.73118302548982
 21
49.53979473643424
 31
0.0
  0
LINE
  5
588
330
585
100
AcDbEntity
  8
Bemaßungen_TC_020513_DIN_
  6
Continuous
 62
     7
100
AcDbLine
 10
125.7311830254898
 20
60.53979473643425
 30
0.0
 11
125.7311830254898
 21
49.53979473643424
 31
0.0
  0
SOLID
  5
589
330
585
100
AcDbEntity
  8
Bemaßungen_TC_020513_DIN_
 62
     7
100
AcDbTrace
 10
58.23118302548982
 20
51.86892598040273
 30
0.0
 11
58.23118302548982
 21
51.21066349246575
 31
0.0
 12
55.73118302548982
 22
51.53979473643424
 32
0.0
 13
55.73118302548982
 23
51.53979473643424
 33
0.0
  0
SOLID
  5
58A
330
585
100
AcDbEntity
  8
Bemaßungen_TC_020513_DIN_
 62
     7
100
AcDbTrace
 10
123.2311830254898
 20
51.21066349246575
 30
0.0
 11
123.2311830254898
 21
51.86892598040273
 31
0.0
 12
125.7311830254898
 22
51.53979473643424
 32
0.0
 13
125.7311830254898
 23
51.53979473643424
 33
0.0
  0
MTEXT
  5
58B
330
585
100
AcDbEntity
  8
Bemaßungen_TC_020513_DIN_
 62
     7
100
AcDbMText
 10
89.65632172489869
 20
54.52947729227714
 30
0.0
 40
3.5
 41
0.0
 71
     7
 72
     1
  1
70
  7
CONVERTER_13
 11
0.9999999999970619
 21
2.424068405545306E-6
 31
0.0
 73
     1
 44
0.45454545454545
  0
ENDBLK
  5
58D
330
585
100
AcDbEntity
  8
0
100
AcDbBlockEnd
  0
BLOCK
  5
597
330
590
100
AcDbEntity
  8
0
100
AcDbBlockBegin
  2
*D5
 70
     1
 10
0.0
 20
0.0
 30
0.0
  3
*D5
  1

  0
LINE
  5
591
330
590
100
AcDbEntity
  8
Bemaßungen_TC_020513_DIN_
  6
Continuous
 62
     7
100
AcDbLine
 10
131.7311830254907
 20
45.53979473643425
 30
0.0
 11
49.73118302549065
 21
45.53979473643425
 31
0.0
  0
LINE
  5
592
330
590
100
AcDbEntity
  8
Bemaßungen_TC_020513_DIN_
  6
Continuous
 62
     7
100
AcDbLine
 10
49.73118302549065
 20
60.53979473643429
 30
0.0
 11
49.73118302549065
 21
43.53979473643425
 31
0.0
  0
LINE
  5
593
330
590
100
AcDbEntity
  8
Bemaßungen_TC_020513_DIN_
  6
Continuous
 62
     7
100
AcDbLine
 10
131.7311830254907
 20
60.53979473643429
 30
0.0
 11
131.7311830254907
 21
43.53979473643425
 31
0.0
  0
SOLID
  5
594
330
590
100
AcDbEntity
  8
Bemaßungen_TC_020513_DIN_
 62
     7
100
AcDbTrace
 10
52.23118302549065
 20
45.86892598040274
 30
0.0
 11
52.23118302549065
 21
45.21066349246576
 31
0.0
 12
49.73118302549065
 22
45.53979473643425
 32
0.0
 13
49.73118302549065
 23
45.53979473643425
 33
0.0
  0
SOLID
  5
595
330
590
100
AcDbEntity
  8
Bemaßungen_TC_020513_DIN_
 62
     7
100
AcDbTrace
 10
129.2311830254907
 20
45.21066349246576
 30
0.0
 11
129.2311830254907
 21
45.86892598040274
 31
0.0
 12
131.7311830254907
 22
45.53979473643425
 32
0.0
 13
131.7311830254907
 23
45.53979473643425
 33
0.0
  0
MTEXT
  5
596
330
590
100
AcDbEntity
  8
Bemaßungen_TC_020513_DIN_
 62
     7
100
AcDbMText
 10
89.66904682721872
 20
48.52947729227714
 30
0.0
 40
3.5
 41
0.0
 71
     7
 72
     1
  1
82
  7
CONVERTER_13
 11
0.9999999999970619
 21
2.424068405545306E-6
 31
0.0
 73
     1
 44
0.45454545454545
  0
ENDBLK
  5
598
330
590
100
AcDbEntity
  8
0
100
AcDbBlockEnd
  0
BLOCK
  5
5A2
330
59B
100
AcDbEntity
  8
0
100
AcDbBlockBegin
  2
*D6
 70
     1
 10
0.0
 20
0.0
 30
0.0
  3
*D6
  1

  0
LINE
  5
59C
330
59B
100
AcDbEntity
  8
Bemaßungen_TC_020513_DIN_
  6
Continuous
 62
     7
100
AcDbLine
 10
231.5776494458656
 20
51.53979473643424
 30
0.0
 11
191.5776494458655
 21
51.53979473643424
 31
0.0
  0
LINE
  5
59D
330
59B
100
AcDbEntity
  8
Bemaßungen_TC_020513_DIN_
  6
Continuous
 62
     7
100
AcDbLine
 10
191.5776494458655
 20
60.53979473643425
 30
0.0
 11
191.5776494458655
 21
49.53979473643424
 31
0.0
  0
LINE
  5
59E
330
59B
100
AcDbEntity
  8
Bemaßungen_TC_020513_DIN_
  6
Continuous
 62
     7
100
AcDbLine
 10
231.5776494458656
 20
56.03979473643424
 30
0.0
 11
231.5776494458656
 21
49.53979473643424
 31
0.0
  0
SOLID
  5
59F
330
59B
100
AcDbEntity
  8
Bemaßungen_TC_020513_DIN_
 62
     7
100
AcDbTrace
 10
194.0776494458655
 20
51.86892598040273
 30
0.0
 11
194.0776494458655
 21
51.21066349246575
 31
0.0
 12
191.5776494458655
 22
51.53979473643424
 32
0.0
 13
191.5776494458655
 23
51.53979473643424
 33
0.0
  0
SOLID
  5
5A0
330
59B
100
AcDbEntity
  8
Bemaßungen_TC_020513_DIN_
 62
     7
100
AcDbTrace
 10
229.0776494458656
 20
51.21066349246575
 30
0.0
 11
229.0776494458656
 21
51.86892598040273
 31
0.0
 12
231.5776494458656
 22
51.53979473643424
 32
0.0
 13
231.5776494458656
 23
51.53979473643424
 33
0.0
  0
MTEXT
  5
5A1
330
59B
100
AcDbEntity
  8
Bemaßungen_TC_020513_DIN_
 62
     7
100
AcDbMText
 10
210.4180337114408
 20
54.52947729227714
 30
0.0
 40
3.5
 41
0.0
 71
     7
 72
     1
  1
40
  7
CONVERTER_13
 11
0.9999999999970619
 21
2.424068405545306E-6
 31
0.0
 73
     1
 44
0.45454545454545
  0
ENDBLK
  5
5A3
330
59B
100
AcDbEntity
  8
0
100
AcDbBlockEnd
  0
BLOCK
  5
5AD
330
5A6
100
AcDbEntity
  8
0
100
AcDbBlockBegin
  2
*D7
 70
     1
 10
0.0
 20
0.0
 30
0.0
  3
*D7
  1

  0
LINE
  5
5A7
330
5A6
100
AcDbEntity
  8
Bemaßungen_TC_020513_DIN_
  6
Continuous
 62
     7
100
AcDbLine
 10
237.5776494458643
 20
45.53979473643425
 30
0.0
 11
185.5776494458643
 21
45.53979473643425
 31
0.0
  0
LINE
  5
5A8
330
5A6
100
AcDbEntity
  8
Bemaßungen_TC_020513_DIN_
  6
Continuous
 62
     7
100
AcDbLine
 10
185.5776494458643
 20
60.53979473643429
 30
0.0
 11
185.5776494458643
 21
43.53979473643425
 31
0.0
  0
LINE
  5
5A9
330
5A6
100
AcDbEntity
  8
Bemaßungen_TC_020513_DIN_
  6
Continuous
 62
     7
100
AcDbLine
 10
237.5776494458643
 20
60.53979473643429
 30
0.0
 11
237.5776494458643
 21
43.53979473643425
 31
0.0
  0
SOLID
  5
5AA
330
5A6
100
AcDbEntity
  8
Bemaßungen_TC_020513_DIN_
 62
     7
100
AcDbTrace
 10
188.0776494458643
 20
45.86892598040274
 30
0.0
 11
188.0776494458643
 21
45.21066349246576
 31
0.0
 12
185.5776494458643
 22
45.53979473643425
 32
0.0
 13
185.5776494458643
 23
45.53979473643425
 33
0.0
  0
SOLID
  5
5AB
330
5A6
100
AcDbEntity
  8
Bemaßungen_TC_020513_DIN_
 62
     7
100
AcDbTrace
 10
235.0776494458643
 20
45.21066349246576
 30
0.0
 11
235.0776494458643
 21
45.86892598040274
 31
0.0
 12
237.5776494458643
 22
45.53979473643425
 32
0.0
 13
237.5776494458643
 23
45.53979473643425
 33
0.0
  0
MTEXT
  5
5AC
330
5A6
100
AcDbEntity
  8
Bemaßungen_TC_020513_DIN_
 62
     7
100
AcDbMText
 10
210.5179006964328
 20
48.52947729227714
 30
0.0
 40
3.5
 41
0.0
 71
     7
 72
     1
  1
52
  7
CONVERTER_13
 11
0.9999999999970619
 21
2.424068405545306E-6
 31
0.0
 73
     1
 44
0.45454545454545
  0
ENDBLK
  5
5AE
330
5A6
100
AcDbEntity
  8
0
100
AcDbBlockEnd
  0
BLOCK
  5
5B8
330
5B1
100
AcDbEntity
  8
0
100
AcDbBlockBegin
  2
*D8
 70
     1
 10
0.0
 20
0.0
 30
0.0
  3
*D8
  1

  0
LINE
  5
5B2
330
5B1
100
AcDbEntity
  8
Bemaßungen_TC_020513_DIN_
  6
Continuous
 62
     7
100
AcDbLine
 10
164.3276494458687
 20
179.0397947364344
 30
0.0
 11
257.5115994175876
 21
179.0397947364341
 31
0.0
  0
LINE
  5
5B3
330
5B1
100
AcDbEntity
  8
Bemaßungen_TC_020513_DIN_
  6
Continuous
 62
     7
100
AcDbLine
 10
257.5115994175874
 20
95.5397947364344
 30
0.0
 11
257.5115994175876
 21
181.0397947364341
 31
0.0
  0
LINE
  5
5B4
330
5B1
100
AcDbEntity
  8
Bemaßungen_TC_020513_DIN_
  6
Continuous
 62
     7
100
AcDbLine
 10
164.3276494458687
 20
170.0397947364344
 30
0.0
 11
164.3276494458687
 21
181.0397947364344
 31
0.0
  0
SOLID
  5
5B5
330
5B1
100
AcDbEntity
  8
Bemaßungen_TC_020513_DIN_
 62
     7
100
AcDbTrace
 10
255.0115994175876
 20
178.7106634924657
 30
0.0
 11
255.0115994175876
 21
179.3689259804026
 31
0.0
 12
257.5115994175876
 22
179.0397947364341
 32
0.0
 13
257.5115994175876
 23
179.0397947364341
 33
0.0
  0
SOLID
  5
5B6
330
5B1
100
AcDbEntity
  8
Bemaßungen_TC_020513_DIN_
 62
     7
100
AcDbTrace
 10
166.8276494458687
 20
179.3689259804029
 30
0.0
 11
166.8276494458687
 21
178.7106634924659
 31
0.0
 12
164.3276494458687
 22
179.0397947364344
 32
0.0
 13
164.3276494458687
 23
179.0397947364344
 33
0.0
  0
MTEXT
  5
5B7
330
5B1
100
AcDbEntity
  8
Bemaßungen_TC_020513_DIN_
 62
     7
100
AcDbMText
 10
209.8244698159938
 20
182.0318647411175
 30
0.0
 40
3.5
 41
0.0
 71
     7
 72
     1
  1
93
  7
CONVERTER_13
 11
0.9999999999970619
 21
2.424068405545306E-6
 31
0.0
 73
     1
 44
0.45454545454545
  0
ENDBLK
  5
5B9
330
5B1
100
AcDbEntity
  8
0
100
AcDbBlockEnd
  0
BLOCK
  5
5C3
330
5BC
100
AcDbEntity
  8
0
100
AcDbBlockBegin
  2
*D9
 70
     1
 10
0.0
 20
0.0
 30
0.0
  3
*D9
  1

  0
LINE
  5
5BD
330
5BC
100
AcDbEntity
  8
Bemaßungen_TC_020513_DIN_
  6
Continuous
 62
     7
100
AcDbLine
 10
126.7311830254901
 20
179.5397947364343
 30
0.0
 11
54.73118302548996
 21
179.5397947364343
 31
0.0
  0
LINE
  5
5BE
330
5BC
100
AcDbEntity
  8
Bemaßungen_TC_020513_DIN_
  6
Continuous
 62
     7
100
AcDbLine
 10
54.73118302548996
 20
110.5397947364343
 30
0.0
 11
54.73118302548996
 21
181.5397947364343
 31
0.0
  0
LINE
  5
5BF
330
5BC
100
AcDbEntity
  8
Bemaßungen_TC_020513_DIN_
  6
Continuous
 62
     7
100
AcDbLine
 10
126.7311830254901
 20
110.5397947364343
 30
0.0
 11
126.7311830254901
 21
181.5397947364343
 31
0.0
  0
SOLID
  5
5C0
330
5BC
100
AcDbEntity
  8
Bemaßungen_TC_020513_DIN_
 62
     7
100
AcDbTrace
 10
57.23118302548996
 20
179.8689259804028
 30
0.0
 11
57.23118302548996
 21
179.2106634924658
 31
0.0
 12
54.73118302548996
 22
179.5397947364343
 32
0.0
 13
54.73118302548996
 23
179.5397947364343
 33
0.0
  0
SOLID
  5
5C1
330
5BC
100
AcDbEntity
  8
Bemaßungen_TC_020513_DIN_
 62
     7
100
AcDbTrace
 10
124.2311830254901
 20
179.2106634924658
 30
0.0
 11
124.2311830254901
 21
179.8689259804028
 31
0.0
 12
126.7311830254901
 22
179.5397947364343
 32
0.0
 13
126.7311830254901
 23
179.5397947364343
 33
0.0
  0
MTEXT
  5
5C2
330
5BC
100
AcDbEntity
  8
Bemaßungen_TC_020513_DIN_
 62
     7
100
AcDbMText
 10
89.68575896910073
 20
182.4523781359442
 30
0.0
 40
3.5
 41
0.0
 71
     7
 72
     1
  1
72
  7
CONVERTER_13
 11
0.9999999999970619
 21
2.424068405545306E-6
 31
0.0
 73
     1
 44
0.45454545454545
  0
ENDBLK
  5
5C4
330
5BC
100
AcDbEntity
  8
0
100
AcDbBlockEnd
  0
BLOCK
  5
5CE
330
5C7
100
AcDbEntity
  8
0
100
AcDbBlockBegin
  2
*D10
 70
     1
 10
0.0
 20
0.0
 30
0.0
  3
*D10
  1

  0
LINE
  5
5C8
330
5C7
100
AcDbEntity
  8
Bemaßungen_TC_020513_DIN_
  6
Continuous
 62
     7
100
AcDbLine
 10
250.9331888613891
 20
54.53979473643431
 30
0.0
 11
250.9331888613891
 21
68.5397947364343
 31
0.0
  0
LINE
  5
5C9
330
5C7
100
AcDbEntity
  8
Bemaßungen_TC_020513_DIN_
  6
Continuous
 62
     7
100
AcDbLine
 10
238.5776494458638
 20
63.5397947364343
 30
0.0
 11
252.9331888613891
 21
63.5397947364343
 31
0.0
  0
LINE
  5
5CA
330
5C7
100
AcDbEntity
  8
Bemaßungen_TC_020513_DIN_
  6
Continuous
 62
     7
100
AcDbLine
 10
238.5776494458638
 20
59.53979473643431
 30
0.0
 11
252.9331888613891
 21
59.53979473643431
 31
0.0
  0
SOLID
  5
5CB
330
5C7
100
AcDbEntity
  8
Bemaßungen_TC_020513_DIN_
 62
     7
100
AcDbTrace
 10
250.6040576174206
 20
66.03979473643429
 30
0.0
 11
251.2623201053576
 21
66.03979473643429
 31
0.0
 12
250.9331888613891
 22
63.5397947364343
 32
0.0
 13
250.9331888613891
 23
63.5397947364343
 33
0.0
  0
SOLID
  5
5CC
330
5C7
100
AcDbEntity
  8
Bemaßungen_TC_020513_DIN_
 62
     7
100
AcDbTrace
 10
251.2623201053576
 20
57.03979473643431
 30
0.0
 11
250.6040576174206
 21
57.03979473643431
 31
0.0
 12
250.9331888613891
 22
59.53979473643431
 32
0.0
 13
250.9331888613891
 23
59.53979473643431
 33
0.0
  0
MTEXT
  5
5CD
330
5C7
100
AcDbEntity
  8
Bemaßungen_TC_020513_DIN_
 62
     7
100
AcDbMText
 10
248.0262236872597
 20
61.06435817436068
 30
0.0
 40
3.5
 41
0.0
 71
     7
 72
     1
  1
4
  7
CONVERTER_13
 11
0.0
 21
1.0
 31
0.0
 73
     1
 44
0.45454545454545
  0
ENDBLK
  5
5CF
330
5C7
100
AcDbEntity
  8
0
100
AcDbBlockEnd
  0
BLOCK
  5
5D9
330
5D2
100
AcDbEntity
  8
0
100
AcDbBlockBegin
  2
*D11
 70
     1
 10
0.0
 20
0.0
 30
0.0
  3
*D11
  1

  0
LINE
  5
5D3
330
5D2
100
AcDbEntity
  8
Bemaßungen_TC_020513_DIN_
  6
Continuous
 62
     7
100
AcDbLine
 10
38.23118302549032
 20
177.0397947364341
 30
0.0
 11
38.23118302549032
 21
59.5397947364341
 31
0.0
  0
LINE
  5
5D4
330
5D2
100
AcDbEntity
  8
Bemaßungen_TC_020513_DIN_
  6
Continuous
 62
     7
100
AcDbLine
 10
53.23118302549032
 20
59.5397947364341
 30
0.0
 11
36.23118302549032
 21
59.5397947364341
 31
0.0
  0
LINE
  5
5D5
330
5D2
100
AcDbEntity
  8
Bemaßungen_TC_020513_DIN_
  6
Continuous
 62
     7
100
AcDbLine
 10
80.73118302549032
 20
177.0397947364341
 30
0.0
 11
36.23118302549032
 21
177.0397947364341
 31
0.0
  0
SOLID
  5
5D6
330
5D2
100
AcDbEntity
  8
Bemaßungen_TC_020513_DIN_
 62
     7
100
AcDbTrace
 10
37.90205178152183
 20
62.0397947364341
 30
0.0
 11
38.56031426945881
 21
62.0397947364341
 31
0.0
 12
38.23118302549032
 22
59.5397947364341
 32
0.0
 13
38.23118302549032
 23
59.5397947364341
 33
0.0
  0
SOLID
  5
5D7
330
5D2
100
AcDbEntity
  8
Bemaßungen_TC_020513_DIN_
 62
     7
100
AcDbTrace
 10
38.56031426945881
 20
174.5397947364341
 30
0.0
 11
37.90205178152183
 21
174.5397947364341
 31
0.0
 12
38.23118302549032
 22
177.0397947364341
 32
0.0
 13
38.23118302549032
 23
177.0397947364341
 33
0.0
  0
MTEXT
  5
5D8
330
5D2
100
AcDbEntity
  8
Bemaßungen_TC_020513_DIN_
 62
     7
100
AcDbMText
 10
34.34763249709544
 20
116.3452096977802
 30
0.0
 40
3.5
 41
0.0
 71
     7
 72
     1
  1
117,5
  7
CONVERTER_13
 11
0.0
 21
1.0
 31
0.0
 73
     1
 44
0.45454545454545
  0
ENDBLK
  5
5DA
330
5D2
100
AcDbEntity
  8
0
100
AcDbBlockEnd
  0
BLOCK
  5
5E4
330
5DD
100
AcDbEntity
  8
0
100
AcDbBlockBegin
  2
*D12
 70
     1
 10
0.0
 20
0.0
 30
0.0
  3
*D12
  1

  0
LINE
  5
5DE
330
5DD
100
AcDbEntity
  8
Bemaßungen_TC_020513_DIN_
  6
Continuous
 62
     7
100
AcDbLine
 10
265.5776494458643
 20
59.5397947364343
 30
0.0
 11
265.5776494458643
 21
112.5397947364343
 31
0.0
  0
LINE
  5
5DF
330
5DD
100
AcDbEntity
  8
Bemaßungen_TC_020513_DIN_
  6
Continuous
 62
     7
100
AcDbLine
 10
231.7276494458687
 20
112.5397947364343
 30
0.0
 11
267.5776494458643
 21
112.5397947364343
 31
0.0
  0
LINE
  5
5E0
330
5DD
100
AcDbEntity
  8
Bemaßungen_TC_020513_DIN_
  6
Continuous
 62
     7
100
AcDbLine
 10
238.5776494458642
 20
59.5397947364343
 30
0.0
 11
267.5776494458643
 21
59.5397947364343
 31
0.0
  0
SOLID
  5
5E1
330
5DD
100
AcDbEntity
  8
Bemaßungen_TC_020513_DIN_
 62
     7
100
AcDbTrace
 10
265.9067806898328
 20
110.0397947364343
 30
0.0
 11
265.2485182018958
 21
110.0397947364343
 31
0.0
 12
265.5776494458643
 22
112.5397947364343
 32
0.0
 13
265.5776494458643
 23
112.5397947364343
 33
0.0
  0
SOLID
  5
5E2
330
5DD
100
AcDbEntity
  8
Bemaßungen_TC_020513_DIN_
 62
     7
100
AcDbTrace
 10
265.2485182018958
 20
62.0397947364343
 30
0.0
 11
265.9067806898328
 21
62.0397947364343
 31
0.0
 12
265.5776494458643
 22
59.5397947364343
 32
0.0
 13
265.5776494458643
 23
59.5397947364343
 33
0.0
  0
MTEXT
  5
5E3
330
5DD
100
AcDbEntity
  8
Bemaßungen_TC_020513_DIN_
 62
     7
100
AcDbMText
 10
262.585579441181
 20
84.94464012069987
 30
0.0
 40
3.5
 41
0.0
 71
     7
 72
     1
  1
53
  7
CONVERTER_13
 11
0.0
 21
1.0
 31
0.0
 73
     1
 44
0.45454545454545
  0
ENDBLK
  5
5E5
330
5DD
100
AcDbEntity
  8
0
100
AcDbBlockEnd
  0
ENDSEC
  0
SECTION
  2
ENTITIES
  0
INSERT
  5
56
330
1F
100
AcDbEntity
  8
0
100
AcDbBlockReference
  2
A4_oriz
 10
297.0000000000002
 20
0.0
 30
0.0
  0
POINT
  5
B2
330
1F
100
AcDbEntity
  8
Bemaßungen_TC_020513_DIN_
 62
     7
100
AcDbPoint
 10
131.7311830254901
 20
87.86179473643429
 30
0.0
  0
POINT
  5
B3
330
1F
100
AcDbEntity
  8
Bemaßungen_TC_020513_DIN_
 62
     7
100
AcDbPoint
 10
131.7311830254901
 20
64.37779473643431
 30
0.0
  0
POINT
  5
B4
330
1F
100
AcDbEntity
  8
Bemaßungen_TC_020513_DIN_
 62
     7
100
AcDbPoint
 10
55.73118302549034
 20
57.0397947364343
 30
0.0
  0
POINT
  5
B5
330
1F
100
AcDbEntity
  8
Bemaßungen_TC_020513_DIN_
 62
     7
100
AcDbPoint
 10
125.7311830254901
 20
61.53979473643428
 30
0.0
  0
POINT
  5
B6
330
1F
100
AcDbEntity
  8
Bemaßungen_TC_020513_DIN_
 62
     7
100
AcDbPoint
 10
49.73118302549034
 20
61.53979473643428
 30
0.0
  0
POINT
  5
B7
330
1F
100
AcDbEntity
  8
Bemaßungen_TC_020513_DIN_
 62
     7
100
AcDbPoint
 10
131.7311830254901
 20
61.53979473643428
 30
0.0
  0
POINT
  5
B8
330
1F
100
AcDbEntity
  8
Bemaßungen_TC_020513_DIN_
 62
     7
100
AcDbPoint
 10
191.577649445866
 20
61.53979473643428
 30
0.0
  0
POINT
  5
B9
330
1F
100
AcDbEntity
  8
Bemaßungen_TC_020513_DIN_
 62
     7
100
AcDbPoint
 10
231.577649445866
 20
57.0397947364343
 30
0.0
  0
POINT
  5
BA
330
1F
100
AcDbEntity
  8
Bemaßungen_TC_020513_DIN_
 62
     7
100
AcDbPoint
 10
185.577649445864
 20
61.53979473643428
 30
0.0
  0
POINT
  5
BB
330
1F
100
AcDbEntity
  8
Bemaßungen_TC_020513_DIN_
 62
     7
100
AcDbPoint
 10
237.577649445864
 20
61.53979473643428
 30
0.0
  0
POINT
  5
BC
330
1F
100
AcDbEntity
  8
Bemaßungen_TC_020513_DIN_
 62
     7
100
AcDbPoint
 10
257.511599417587
 20
94.53979473643429
 30
0.0
  0
POINT
  5
BD
330
1F
100
AcDbEntity
  8
Bemaßungen_TC_020513_DIN_
 62
     7
100
AcDbPoint
 10
164.3276494458681
 20
169.0397947364345
 30
0.0
  0
POINT
  5
BE
330
1F
100
AcDbEntity
  8
Bemaßungen_TC_020513_DIN_
 62
     7
100
AcDbPoint
 10
54.73118302549034
 20
109.5397947364345
 30
0.0
  0
POINT
  5
BF
330
1F
100
AcDbEntity
  8
Bemaßungen_TC_020513_DIN_
 62
     7
100
AcDbPoint
 10
126.7311830254901
 20
109.5397947364345
 30
0.0
  0
POINT
  5
C0
330
1F
100
AcDbEntity
  8
Bemaßungen_TC_020513_DIN_
 62
     7
100
AcDbPoint
 10
237.577649445864
 20
63.53979473643428
 30
0.0
  0
POINT
  5
C1
330
1F
100
AcDbEntity
  8
Bemaßungen_TC_020513_DIN_
 62
     7
100
AcDbPoint
 10
237.577649445864
 20
59.5397947364343
 30
0.0
  0
POINT
  5
C2
330
1F
100
AcDbEntity
  8
Bemaßungen_TC_020513_DIN_
 62
     7
100
AcDbPoint
 10
54.23118302549034
 20
59.5397947364343
 30
0.0
  0
POINT
  5
C3
330
1F
100
AcDbEntity
  8
Bemaßungen_TC_020513_DIN_
 62
     7
100
AcDbPoint
 10
81.73118302549034
 20
177.0397947364345
 30
0.0
  0
POINT
  5
C4
330
1F
100
AcDbEntity
  8
Bemaßungen_TC_020513_DIN_
 62
     7
100
AcDbPoint
 10
230.7276494458681
 20
112.5397947364345
 30
0.0
  0
POINT
  5
C5
330
1F
100
AcDbEntity
  8
Bemaßungen_TC_020513_DIN_
 62
     7
100
AcDbPoint
 10
237.577649445864
 20
59.5397947364343
 30
0.0
  0
LINE
  5
C6
330
1F
100
AcDbEntity
  8
Sichtbare_Kanten_TC_020513_DIN_
  6
Continuous
 62
     7
100
AcDbLine
 10
64.23936515301301
 20
94.72315743384351
 30
0.0
 11
70.57172375246853
 21
94.72315743384351
 31
0.0
  0
LINE
  5
C7
330
1F
100
AcDbEntity
  8
Sichtbare_Kanten_TC_020513_DIN_
  6
Continuous
 62
     7
100
AcDbLine
 10
64.23936515301301
 20
93.32315743384348
 30
0.0
 11
70.57172375246853
 21
93.32315743384348
 31
0.0
  0
LINE
  5
C8
330
1F
100
AcDbEntity
  8
Sichtbare_Kanten_TC_020513_DIN_
  6
Continuous
 62
     7
100
AcDbLine
 10
64.23936515301301
 20
94.72315743384351
 30
0.0
 11
63.44782032808104
 21
94.72315743384351
 31
0.0
  0
LINE
  5
C9
330
1F
100
AcDbEntity
  8
Sichtbare_Kanten_TC_020513_DIN_
  6
Continuous
 62
     7
100
AcDbLine
 10
64.23936515301301
 20
93.32315743384348
 30
0.0
 11
63.44782032808104
 21
93.32315743384348
 31
0.0
  0
LINE
  5
CA
330
1F
100
AcDbEntity
  8
Sichtbare_Kanten_TC_020513_DIN_
  6
Continuous
 62
     7
100
AcDbLine
 10
63.44782032808104
 20
93.32315743384348
 30
0.0
 11
59.53118302549035
 21
93.32315743384348
 31
0.0
  0
LINE
  5
CB
330
1F
100
AcDbEntity
  8
Sichtbare_Kanten_TC_020513_DIN_
  6
Continuous
 62
     7
100
AcDbLine
 10
63.44782032808104
 20
94.72315743384351
 30
0.0
 11
59.53118302549035
 21
94.72315743384351
 31
0.0
  0
LINE
  5
CC
330
1F
100
AcDbEntity
  8
Sichtbare_Kanten_TC_020513_DIN_
  6
Continuous
 62
     7
100
AcDbLine
 10
58.13118302549032
 20
96.1231574338436
 30
0.0
 11
58.13118302549032
 21
98.53979473643446
 31
0.0
  0
LINE
  5
CD
330
1F
100
AcDbEntity
  8
Sichtbare_Kanten_TC_020513_DIN_
  6
Continuous
 62
     7
100
AcDbLine
 10
56.73118302549034
 20
96.1231574338436
 30
0.0
 11
56.73118302549034
 21
98.53979473643446
 31
0.0
  0
LINE
  5
CE
330
1F
100
AcDbEntity
  8
Sichtbare_Kanten_TC_020513_DIN_
  6
Continuous
 62
     7
100
AcDbLine
 10
58.13118302549032
 20
112.5397947364345
 30
0.0
 11
58.13118302549032
 21
111.8317704500135
 31
0.0
  0
LINE
  5
CF
330
1F
100
AcDbEntity
  8
Sichtbare_Kanten_TC_020513_DIN_
  6
Continuous
 62
     7
100
AcDbLine
 10
56.73118302549034
 20
112.5397947364345
 30
0.0
 11
56.73118302549034
 21
111.8317704500135
 31
0.0
  0
LINE
  5
D0
330
1F
100
AcDbEntity
  8
Sichtbare_Kanten_TC_020513_DIN_
  6
Continuous
 62
     7
100
AcDbLine
 10
58.13118302549032
 20
111.8317704500135
 30
0.0
 11
58.13118302549032
 21
106.7182069863415
 31
0.0
  0
LINE
  5
D1
330
1F
100
AcDbEntity
  8
Sichtbare_Kanten_TC_020513_DIN_
  6
Continuous
 62
     7
100
AcDbLine
 10
56.73118302549034
 20
111.8317704500135
 30
0.0
 11
56.73118302549034
 21
106.7182069863415
 31
0.0
  0
LINE
  5
D2
330
1F
100
AcDbEntity
  8
Sichtbare_Kanten_TC_020513_DIN_
  6
Continuous
 62
     7
100
AcDbLine
 10
58.13118302549032
 20
106.5397947364345
 30
0.0
 11
58.13118302549032
 21
106.7182069863415
 31
0.0
  0
LINE
  5
D3
330
1F
100
AcDbEntity
  8
Sichtbare_Kanten_TC_020513_DIN_
  6
Continuous
 62
     7
100
AcDbLine
 10
56.73118302549034
 20
106.5397947364345
 30
0.0
 11
56.73118302549034
 21
106.7182069863415
 31
0.0
  0
LINE
  5
D4
330
1F
100
AcDbEntity
  8
Sichtbare_Kanten_TC_020513_DIN_
  6
Continuous
 62
     7
100
AcDbLine
 10
56.73118302549034
 20
106.5397947364345
 30
0.0
 11
58.13118302549032
 21
106.5397947364345
 31
0.0
  0
LINE
  5
D5
330
1F
100
AcDbEntity
  8
Sichtbare_Kanten_TC_020513_DIN_
  6
Continuous
 62
     7
100
AcDbLine
 10
58.13118302549032
 20
106.5397947364345
 30
0.0
 11
58.13118302549032
 21
98.53979473643446
 31
0.0
  0
LINE
  5
D6
330
1F
100
AcDbEntity
  8
Sichtbare_Kanten_TC_020513_DIN_
  6
Continuous
 62
     7
100
AcDbLine
 10
56.73118302549034
 20
106.5397947364345
 30
0.0
 11
56.73118302549034
 21
98.53979473643446
 31
0.0
  0
LINE
  5
D7
330
1F
100
AcDbEntity
  8
Sichtbare_Kanten_TC_020513_DIN_
  6
Continuous
 62
     7
100
AcDbLine
 10
58.13118302549032
 20
93.6982863032471
 30
0.0
 11
58.13118302549032
 21
90.80585431182831
 31
0.0
  0
LINE
  5
D8
330
1F
100
AcDbEntity
  8
Sichtbare_Kanten_TC_020513_DIN_
  6
Continuous
 62
     7
100
AcDbLine
 10
56.73118302549034
 20
96.1231574338436
 30
0.0
 11
56.73118302549034
 21
90.80585431182831
 31
0.0
  0
LINE
  5
D9
330
1F
100
AcDbEntity
  8
Sichtbare_Kanten_TC_020513_DIN_
  6
Continuous
 62
     7
100
AcDbLine
 10
69.44782032808104
 20
93.22315743384351
 30
0.0
 11
69.44782032808104
 21
92.3855025188362
 31
0.0
  0
LINE
  5
DA
330
1F
100
AcDbEntity
  8
Sichtbare_Kanten_TC_020513_DIN_
  6
Continuous
 62
     7
100
AcDbLine
 10
110.890642298512
 20
94.72315743384351
 30
0.0
 11
70.57172375246853
 21
94.72315743384351
 31
0.0
  0
LINE
  5
DB
330
1F
100
AcDbEntity
  8
Sichtbare_Kanten_TC_020513_DIN_
  6
Continuous
 62
     7
100
AcDbLine
 10
69.44782032808104
 20
92.3855025188362
 30
0.0
 11
80.44782032808104
 21
92.3855025188362
 31
0.0
  0
LINE
  5
DC
330
1F
100
AcDbEntity
  8
Sichtbare_Kanten_TC_020513_DIN_
  6
Continuous
 62
     7
100
AcDbLine
 10
80.94782032808104
 20
92.8855025188362
 30
0.0
 11
80.94782032808104
 21
93.22315743384351
 31
0.0
  0
LINE
  5
DD
330
1F
100
AcDbEntity
  8
Sichtbare_Kanten_TC_020513_DIN_
  6
Continuous
 62
     7
100
AcDbLine
 10
110.890642298512
 20
93.32315743384348
 30
0.0
 11
70.57172375246853
 21
93.32315743384348
 31
0.0
  0
LINE
  5
DE
330
1F
100
AcDbEntity
  8
Sichtbare_Kanten_TC_020513_DIN_
  6
Continuous
 62
     7
100
AcDbLine
 10
56.73118302549034
 20
112.5397947364345
 30
0.0
 11
58.13118302549032
 21
112.5397947364345
 31
0.0
  0
LINE
  5
DF
330
1F
100
AcDbEntity
  8
Sichtbare_Kanten_TC_020513_DIN_
  6
Continuous
 62
     7
100
AcDbLine
 10
56.73118302549034
 20
90.80585431182831
 30
0.0
 11
58.13118302549032
 21
90.80585431182831
 31
0.0
  0
LINE
  5
E0
330
1F
100
AcDbEntity
  8
Sichtbare_Kanten_TC_020513_DIN_
  6
Continuous
 62
     7
100
AcDbLine
 10
69.44782032808104
 20
93.32315743384348
 30
0.0
 11
69.44782032808104
 21
93.22315743384351
 31
0.0
  0
LINE
  5
E1
330
1F
100
AcDbEntity
  8
Sichtbare_Kanten_TC_020513_DIN_
  6
Continuous
 62
     7
100
AcDbLine
 10
80.94782032808104
 20
93.22315743384351
 30
0.0
 11
80.94782032808104
 21
93.30302329962919
 31
0.0
  0
LINE
  5
E2
330
1F
100
AcDbEntity
  8
Sichtbare_Kanten_TC_020513_DIN_
  6
Continuous
 62
     7
100
AcDbLine
 10
112.0145457229
 20
93.22315743384351
 30
0.0
 11
112.0145457229
 21
93.32315743384348
 31
0.0
  0
LINE
  5
E3
330
1F
100
AcDbEntity
  8
Sichtbare_Kanten_TC_020513_DIN_
  6
Continuous
 62
     7
100
AcDbLine
 10
100.5145457229
 20
93.30302329962919
 30
0.0
 11
100.5145457229
 21
93.22315743384351
 31
0.0
  0
LINE
  5
E4
330
1F
100
AcDbEntity
  8
Sichtbare_Kanten_TC_020513_DIN_
  6
Continuous
 62
     7
100
AcDbLine
 10
117.223000897968
 20
94.72315743384351
 30
0.0
 11
110.890642298512
 21
94.72315743384351
 31
0.0
  0
LINE
  5
E5
330
1F
100
AcDbEntity
  8
Sichtbare_Kanten_TC_020513_DIN_
  6
Continuous
 62
     7
100
AcDbLine
 10
117.223000897968
 20
94.72315743384351
 30
0.0
 11
118.0145457229
 21
94.72315743384351
 31
0.0
  0
LINE
  5
E6
330
1F
100
AcDbEntity
  8
Sichtbare_Kanten_TC_020513_DIN_
  6
Continuous
 62
     7
100
AcDbLine
 10
118.0145457229
 20
94.72315743384351
 30
0.0
 11
121.93118302549
 21
94.72315743384351
 31
0.0
  0
LINE
  5
E7
330
1F
100
AcDbEntity
  8
Sichtbare_Kanten_TC_020513_DIN_
  6
Continuous
 62
     7
100
AcDbLine
 10
118.0145457229
 20
93.32315743384348
 30
0.0
 11
121.93118302549
 21
93.32315743384348
 31
0.0
  0
LINE
  5
E8
330
1F
100
AcDbEntity
  8
Sichtbare_Kanten_TC_020513_DIN_
  6
Continuous
 62
     7
100
AcDbLine
 10
117.223000897968
 20
93.32315743384348
 30
0.0
 11
118.0145457229
 21
93.32315743384348
 31
0.0
  0
LINE
  5
E9
330
1F
100
AcDbEntity
  8
Sichtbare_Kanten_TC_020513_DIN_
  6
Continuous
 62
     7
100
AcDbLine
 10
117.223000897968
 20
93.32315743384348
 30
0.0
 11
110.890642298512
 21
93.32315743384348
 31
0.0
  0
LINE
  5
EA
330
1F
100
AcDbEntity
  8
Sichtbare_Kanten_TC_020513_DIN_
  6
Continuous
 62
     7
100
AcDbLine
 10
112.0145457229
 20
93.22315743384351
 30
0.0
 11
112.0145457229
 21
92.38550251883609
 31
0.0
  0
LINE
  5
EB
330
1F
100
AcDbEntity
  8
Sichtbare_Kanten_TC_020513_DIN_
  6
Continuous
 62
     7
100
AcDbLine
 10
124.7311830254901
 20
96.1231574338436
 30
0.0
 11
124.7311830254901
 21
98.53979473643446
 31
0.0
  0
LINE
  5
EC
330
1F
100
AcDbEntity
  8
Sichtbare_Kanten_TC_020513_DIN_
  6
Continuous
 62
     7
100
AcDbLine
 10
123.33118302549
 20
96.1231574338436
 30
0.0
 11
123.33118302549
 21
98.53979473643446
 31
0.0
  0
LINE
  5
ED
330
1F
100
AcDbEntity
  8
Sichtbare_Kanten_TC_020513_DIN_
  6
Continuous
 62
     7
100
AcDbLine
 10
123.33118302549
 20
112.5397947364345
 30
0.0
 11
123.33118302549
 21
111.8317704500135
 31
0.0
  0
LINE
  5
EE
330
1F
100
AcDbEntity
  8
Sichtbare_Kanten_TC_020513_DIN_
  6
Continuous
 62
     7
100
AcDbLine
 10
124.7311830254901
 20
112.5397947364345
 30
0.0
 11
124.7311830254901
 21
111.8317704500135
 31
0.0
  0
LINE
  5
EF
330
1F
100
AcDbEntity
  8
Sichtbare_Kanten_TC_020513_DIN_
  6
Continuous
 62
     7
100
AcDbLine
 10
123.33118302549
 20
111.8317704500135
 30
0.0
 11
123.33118302549
 21
106.7182069863415
 31
0.0
  0
LINE
  5
F0
330
1F
100
AcDbEntity
  8
Sichtbare_Kanten_TC_020513_DIN_
  6
Continuous
 62
     7
100
AcDbLine
 10
124.7311830254901
 20
111.8317704500135
 30
0.0
 11
124.7311830254901
 21
106.7182069863415
 31
0.0
  0
LINE
  5
F1
330
1F
100
AcDbEntity
  8
Sichtbare_Kanten_TC_020513_DIN_
  6
Continuous
 62
     7
100
AcDbLine
 10
123.33118302549
 20
106.5397947364345
 30
0.0
 11
123.33118302549
 21
106.7182069863415
 31
0.0
  0
LINE
  5
F2
330
1F
100
AcDbEntity
  8
Sichtbare_Kanten_TC_020513_DIN_
  6
Continuous
 62
     7
100
AcDbLine
 10
124.7311830254901
 20
106.5397947364345
 30
0.0
 11
124.7311830254901
 21
106.7182069863415
 31
0.0
  0
LINE
  5
F3
330
1F
100
AcDbEntity
  8
Sichtbare_Kanten_TC_020513_DIN_
  6
Continuous
 62
     7
100
AcDbLine
 10
124.7311830254901
 20
106.5397947364345
 30
0.0
 11
123.33118302549
 21
106.5397947364345
 31
0.0
  0
LINE
  5
F4
330
1F
100
AcDbEntity
  8
Sichtbare_Kanten_TC_020513_DIN_
  6
Continuous
 62
     7
100
AcDbLine
 10
123.33118302549
 20
106.5397947364345
 30
0.0
 11
123.33118302549
 21
98.53979473643446
 31
0.0
  0
LINE
  5
F5
330
1F
100
AcDbEntity
  8
Sichtbare_Kanten_TC_020513_DIN_
  6
Continuous
 62
     7
100
AcDbLine
 10
124.7311830254901
 20
106.5397947364345
 30
0.0
 11
124.7311830254901
 21
98.53979473643446
 31
0.0
  0
LINE
  5
F6
330
1F
100
AcDbEntity
  8
Sichtbare_Kanten_TC_020513_DIN_
  6
Continuous
 62
     7
100
AcDbLine
 10
123.33118302549
 20
93.69828630324716
 30
0.0
 11
123.33118302549
 21
90.80585431182831
 31
0.0
  0
LINE
  5
F7
330
1F
100
AcDbEntity
  8
Sichtbare_Kanten_TC_020513_DIN_
  6
Continuous
 62
     7
100
AcDbLine
 10
124.7311830254901
 20
96.1231574338436
 30
0.0
 11
124.7311830254901
 21
90.80585431182831
 31
0.0
  0
LINE
  5
F8
330
1F
100
AcDbEntity
  8
Sichtbare_Kanten_TC_020513_DIN_
  6
Continuous
 62
     7
100
AcDbLine
 10
100.5145457229
 20
92.88550251883609
 30
0.0
 11
100.5145457229
 21
93.22315743384351
 31
0.0
  0
LINE
  5
F9
330
1F
100
AcDbEntity
  8
Sichtbare_Kanten_TC_020513_DIN_
  6
Continuous
 62
     7
100
AcDbLine
 10
112.0145457229
 20
92.38550251883609
 30
0.0
 11
101.0145457229
 21
92.38550251883609
 31
0.0
  0
LINE
  5
FA
330
1F
100
AcDbEntity
  8
Sichtbare_Kanten_TC_020513_DIN_
  6
Continuous
 62
     7
100
AcDbLine
 10
123.33118302549
 20
112.5397947364345
 30
0.0
 11
124.7311830254901
 21
112.5397947364345
 31
0.0
  0
LINE
  5
FB
330
1F
100
AcDbEntity
  8
Sichtbare_Kanten_TC_020513_DIN_
  6
Continuous
 62
     7
100
AcDbLine
 10
123.33118302549
 20
90.80585431182831
 30
0.0
 11
124.7311830254901
 21
90.80585431182831
 31
0.0
  0
LINE
  5
FC
330
1F
100
AcDbEntity
  8
Sichtbare_Kanten_TC_020513_DIN_
  6
Continuous
 62
     7
100
AcDbLine
 10
49.73118302549034
 20
59.5397947364343
 30
0.0
 11
49.73118302549034
 21
63.53979473643428
 31
0.0
  0
LINE
  5
FD
330
1F
100
AcDbEntity
  8
Sichtbare_Kanten_TC_020513_DIN_
  6
Continuous
 62
     7
100
AcDbLine
 10
58.73118302549034
 20
63.53979473643428
 30
0.0
 11
49.73118302549034
 21
63.53979473643428
 31
0.0
  0
LINE
  5
FE
330
1F
100
AcDbEntity
  8
Sichtbare_Kanten_TC_020513_DIN_
  6
Continuous
 62
     7
100
AcDbLine
 10
58.73118302549034
 20
59.5397947364343
 30
0.0
 11
49.73118302549034
 21
59.5397947364343
 31
0.0
  0
LINE
  5
FF
330
1F
100
AcDbEntity
  8
Sichtbare_Kanten_TC_020513_DIN_
  6
Continuous
 62
     7
100
AcDbLine
 10
58.73118302549034
 20
59.5397947364343
 30
0.0
 11
58.73118302549034
 21
63.53979473643428
 31
0.0
  0
LINE
  5
100
330
1F
100
AcDbEntity
  8
Sichtbare_Kanten_TC_020513_DIN_
  6
Continuous
 62
     7
100
AcDbLine
 10
68.73118302549034
 20
63.53979473643428
 30
0.0
 11
58.73118302549034
 21
63.53979473643428
 31
0.0
  0
LINE
  5
101
330
1F
100
AcDbEntity
  8
Sichtbare_Kanten_TC_020513_DIN_
  6
Continuous
 62
     7
100
AcDbLine
 10
68.73118302549034
 20
59.5397947364343
 30
0.0
 11
58.73118302549034
 21
59.5397947364343
 31
0.0
  0
LINE
  5
102
330
1F
100
AcDbEntity
  8
Sichtbare_Kanten_TC_020513_DIN_
  6
Continuous
 62
     7
100
AcDbLine
 10
68.73118302549034
 20
59.5397947364343
 30
0.0
 11
68.73118302549034
 21
63.53979473643428
 31
0.0
  0
LINE
  5
103
330
1F
100
AcDbEntity
  8
Sichtbare_Kanten_TC_020513_DIN_
  6
Continuous
 62
     7
100
AcDbLine
 10
112.7311830254901
 20
59.5397947364343
 30
0.0
 11
68.73118302549034
 21
59.5397947364343
 31
0.0
  0
LINE
  5
104
330
1F
100
AcDbEntity
  8
Sichtbare_Kanten_TC_020513_DIN_
  6
Continuous
 62
     7
100
AcDbLine
 10
112.7311830254901
 20
59.5397947364343
 30
0.0
 11
112.7311830254901
 21
63.53979473643428
 31
0.0
  0
LINE
  5
105
330
1F
100
AcDbEntity
  8
Sichtbare_Kanten_TC_020513_DIN_
  6
Continuous
 62
     7
100
AcDbLine
 10
122.7311830254901
 20
63.53979473643428
 30
0.0
 11
112.7311830254901
 21
63.53979473643428
 31
0.0
  0
LINE
  5
106
330
1F
100
AcDbEntity
  8
Sichtbare_Kanten_TC_020513_DIN_
  6
Continuous
 62
     7
100
AcDbLine
 10
122.7311830254901
 20
59.5397947364343
 30
0.0
 11
112.7311830254901
 21
59.5397947364343
 31
0.0
  0
LINE
  5
107
330
1F
100
AcDbEntity
  8
Sichtbare_Kanten_TC_020513_DIN_
  6
Continuous
 62
     7
100
AcDbLine
 10
122.7311830254901
 20
59.5397947364343
 30
0.0
 11
122.7311830254901
 21
63.53979473643428
 31
0.0
  0
LINE
  5
108
330
1F
100
AcDbEntity
  8
Sichtbare_Kanten_TC_020513_DIN_
  6
Continuous
 62
     7
100
AcDbLine
 10
131.7311830254901
 20
63.53979473643428
 30
0.0
 11
122.7311830254901
 21
63.53979473643428
 31
0.0
  0
LINE
  5
109
330
1F
100
AcDbEntity
  8
Sichtbare_Kanten_TC_020513_DIN_
  6
Continuous
 62
     7
100
AcDbLine
 10
131.7311830254901
 20
59.5397947364343
 30
0.0
 11
122.7311830254901
 21
59.5397947364343
 31
0.0
  0
LINE
  5
10A
330
1F
100
AcDbEntity
  8
Sichtbare_Kanten_TC_020513_DIN_
  6
Continuous
 62
     7
100
AcDbLine
 10
131.7311830254901
 20
59.5397947364343
 30
0.0
 11
131.7311830254901
 21
63.53979473643428
 31
0.0
  0
LINE
  5
10B
330
1F
100
AcDbEntity
  8
Sichtbare_Kanten_TC_020513_DIN_
  6
Continuous
 62
     7
100
AcDbLine
 10
49.73118302549034
 20
76.1197947364343
 30
0.0
 11
49.73118302549034
 21
63.53979473643428
 31
0.0
  0
LINE
  5
10C
330
1F
100
AcDbEntity
  8
Sichtbare_Kanten_TC_020513_DIN_
  6
Continuous
 62
     7
100
AcDbLine
 10
49.73118302549034
 20
76.1197947364343
 30
0.0
 11
49.73118302549034
 21
88.44979473643431
 31
0.0
  0
LINE
  5
10D
330
1F
100
AcDbEntity
  8
Sichtbare_Kanten_TC_020513_DIN_
  6
Continuous
 62
     7
100
AcDbLine
 10
61.48118302549034
 20
88.44979473643431
 30
0.0
 11
49.73118302549034
 21
88.44979473643431
 31
0.0
  0
LINE
  5
10E
330
1F
100
AcDbEntity
  8
Sichtbare_Kanten_TC_020513_DIN_
  6
Continuous
 62
     7
100
AcDbLine
 10
113.9811830254901
 20
108.5397947364345
 30
0.0
 11
109.1407595124941
 21
108.5397947364345
 31
0.0
  0
LINE
  5
10F
330
1F
100
AcDbEntity
  8
Sichtbare_Kanten_TC_020513_DIN_
  6
Continuous
 62
     7
100
AcDbLine
 10
72.32160653848706
 20
108.5397947364345
 30
0.0
 11
67.48118302549034
 21
108.5397947364345
 31
0.0
  0
LINE
  5
110
330
1F
100
AcDbEntity
  8
Sichtbare_Kanten_TC_020513_DIN_
  6
Continuous
 62
     7
100
AcDbLine
 10
61.48118302549034
 20
108.5397947364345
 30
0.0
 11
67.48118302549034
 21
108.5397947364345
 31
0.0
  0
LINE
  5
111
330
1F
100
AcDbEntity
  8
Sichtbare_Kanten_TC_020513_DIN_
  6
Continuous
 62
     7
100
AcDbLine
 10
113.9811830254901
 20
108.5397947364345
 30
0.0
 11
119.9811830254901
 21
108.5397947364345
 31
0.0
  0
LINE
  5
112
330
1F
100
AcDbEntity
  8
Sichtbare_Kanten_TC_020513_DIN_
  6
Continuous
 62
     7
100
AcDbLine
 10
119.9811830254901
 20
63.53979473643428
 30
0.0
 11
119.9811830254901
 21
93.32315743384348
 31
0.0
  0
LINE
  5
113
330
1F
100
AcDbEntity
  8
Sichtbare_Kanten_TC_020513_DIN_
  6
Continuous
 62
     7
100
AcDbLine
 10
119.9811830254901
 20
94.72315743384351
 30
0.0
 11
119.9811830254901
 21
108.5397947364345
 31
0.0
  0
LINE
  5
114
330
1F
100
AcDbEntity
  8
Sichtbare_Kanten_TC_020513_DIN_
  6
Continuous
 62
     7
100
AcDbLine
 10
61.48118302549034
 20
63.53979473643428
 30
0.0
 11
61.48118302549034
 21
93.32315743384348
 31
0.0
  0
LINE
  5
115
330
1F
100
AcDbEntity
  8
Sichtbare_Kanten_TC_020513_DIN_
  6
Continuous
 62
     7
100
AcDbLine
 10
61.48118302549034
 20
94.72315743384351
 30
0.0
 11
61.48118302549034
 21
108.5397947364345
 31
0.0
  0
LINE
  5
116
330
1F
100
AcDbEntity
  8
Sichtbare_Kanten_TC_020513_DIN_
  6
Continuous
 62
     7
100
AcDbLine
 10
67.48118302549034
 20
112.5397947364345
 30
0.0
 11
61.68118302549033
 21
112.5397947364345
 31
0.0
  0
LINE
  5
117
330
1F
100
AcDbEntity
  8
Sichtbare_Kanten_TC_020513_DIN_
  6
Continuous
 62
     7
100
AcDbLine
 10
67.48118302549034
 20
112.5397947364345
 30
0.0
 11
71.28637780406723
 21
112.5397947364345
 31
0.0
  0
LINE
  5
118
330
1F
100
AcDbEntity
  8
Sichtbare_Kanten_TC_020513_DIN_
  6
Continuous
 62
     7
100
AcDbLine
 10
110.1759882469131
 20
112.5397947364345
 30
0.0
 11
113.9811830254901
 21
112.5397947364345
 31
0.0
  0
LINE
  5
119
330
1F
100
AcDbEntity
  8
Sichtbare_Kanten_TC_020513_DIN_
  6
Continuous
 62
     7
100
AcDbLine
 10
119.7811830254901
 20
112.5397947364345
 30
0.0
 11
113.9811830254901
 21
112.5397947364345
 31
0.0
  0
LINE
  5
11A
330
1F
100
AcDbEntity
  8
Sichtbare_Kanten_TC_020513_DIN_
  6
Continuous
 62
     7
100
AcDbLine
 10
119.7811830254901
 20
112.5397947364345
 30
0.0
 11
119.7811830254901
 21
108.5397947364345
 31
0.0
  0
LINE
  5
11B
330
1F
100
AcDbEntity
  8
Sichtbare_Kanten_TC_020513_DIN_
  6
Continuous
 62
     7
100
AcDbLine
 10
61.68118302549033
 20
112.5397947364345
 30
0.0
 11
61.68118302549033
 21
108.5397947364345
 31
0.0
  0
LINE
  5
11C
330
1F
100
AcDbEntity
  8
Sichtbare_Kanten_TC_020513_DIN_
  6
Continuous
 62
     7
100
AcDbLine
 10
126.7311830254901
 20
101.5397947364345
 30
0.0
 11
126.7311830254901
 21
109.5397947364345
 31
0.0
  0
LINE
  5
11D
330
1F
100
AcDbEntity
  8
Sichtbare_Kanten_TC_020513_DIN_
  6
Continuous
 62
     7
100
AcDbLine
 10
125.33118302549
 20
101.5397947364345
 30
0.0
 11
125.33118302549
 21
109.5397947364345
 31
0.0
  0
LINE
  5
11E
330
1F
100
AcDbEntity
  8
Sichtbare_Kanten_TC_020513_DIN_
  6
Continuous
 62
     7
100
AcDbLine
 10
120.07118302549
 20
103.0397947364345
 30
0.0
 11
120.07118302549
 21
108.0397947364345
 31
0.0
  0
LINE
  5
11F
330
1F
100
AcDbEntity
  8
Sichtbare_Kanten_TC_020513_DIN_
  6
Continuous
 62
     7
100
AcDbLine
 10
120.07118302549
 20
108.0397947364345
 30
0.0
 11
121.33118302549
 21
108.0397947364345
 31
0.0
  0
LINE
  5
120
330
1F
100
AcDbEntity
  8
Sichtbare_Kanten_TC_020513_DIN_
  6
Continuous
 62
     7
100
AcDbLine
 10
122.7311830254901
 20
108.0397947364345
 30
0.0
 11
123.33118302549
 21
108.0397947364345
 31
0.0
  0
LINE
  5
121
330
1F
100
AcDbEntity
  8
Sichtbare_Kanten_TC_020513_DIN_
  6
Continuous
 62
     7
100
AcDbLine
 10
120.07118302549
 20
103.0397947364345
 30
0.0
 11
121.33118302549
 21
103.0397947364345
 31
0.0
  0
LINE
  5
122
330
1F
100
AcDbEntity
  8
Sichtbare_Kanten_TC_020513_DIN_
  6
Continuous
 62
     7
100
AcDbLine
 10
122.7311830254901
 20
103.0397947364345
 30
0.0
 11
123.33118302549
 21
103.0397947364345
 31
0.0
  0
LINE
  5
123
330
1F
100
AcDbEntity
  8
Sichtbare_Kanten_TC_020513_DIN_
  6
Continuous
 62
     7
100
AcDbLine
 10
124.7311830254901
 20
108.0397947364345
 30
0.0
 11
125.33118302549
 21
108.0397947364345
 31
0.0
  0
LINE
  5
124
330
1F
100
AcDbEntity
  8
Sichtbare_Kanten_TC_020513_DIN_
  6
Continuous
 62
     7
100
AcDbLine
 10
124.7311830254901
 20
103.0397947364345
 30
0.0
 11
125.33118302549
 21
103.0397947364345
 31
0.0
  0
LINE
  5
125
330
1F
100
AcDbEntity
  8
Sichtbare_Kanten_TC_020513_DIN_
  6
Continuous
 62
     7
100
AcDbLine
 10
119.9811830254901
 20
107.0397947364345
 30
0.0
 11
120.07118302549
 21
107.0397947364345
 31
0.0
  0
LINE
  5
126
330
1F
100
AcDbEntity
  8
Sichtbare_Kanten_TC_020513_DIN_
  6
Continuous
 62
     7
100
AcDbLine
 10
119.9811830254901
 20
104.0397947364345
 30
0.0
 11
120.07118302549
 21
104.0397947364345
 31
0.0
  0
LINE
  5
127
330
1F
100
AcDbEntity
  8
Sichtbare_Kanten_TC_020513_DIN_
  6
Continuous
 62
     7
100
AcDbLine
 10
54.73118302549034
 20
101.5397947364345
 30
0.0
 11
54.73118302549034
 21
109.5397947364345
 31
0.0
  0
LINE
  5
128
330
1F
100
AcDbEntity
  8
Sichtbare_Kanten_TC_020513_DIN_
  6
Continuous
 62
     7
100
AcDbLine
 10
56.13118302549026
 20
101.5397947364345
 30
0.0
 11
56.13118302549026
 21
109.5397947364345
 31
0.0
  0
LINE
  5
129
330
1F
100
AcDbEntity
  8
Sichtbare_Kanten_TC_020513_DIN_
  6
Continuous
 62
     7
100
AcDbLine
 10
61.39118302549036
 20
103.0397947364345
 30
0.0
 11
61.39118302549036
 21
108.0397947364345
 31
0.0
  0
LINE
  5
12A
330
1F
100
AcDbEntity
  8
Sichtbare_Kanten_TC_020513_DIN_
  6
Continuous
 62
     7
100
AcDbLine
 10
58.13118302549032
 20
108.0397947364345
 30
0.0
 11
58.73118302549034
 21
108.0397947364345
 31
0.0
  0
LINE
  5
12B
330
1F
100
AcDbEntity
  8
Sichtbare_Kanten_TC_020513_DIN_
  6
Continuous
 62
     7
100
AcDbLine
 10
60.13118302549032
 20
108.0397947364345
 30
0.0
 11
61.39118302549036
 21
108.0397947364345
 31
0.0
  0
LINE
  5
12C
330
1F
100
AcDbEntity
  8
Sichtbare_Kanten_TC_020513_DIN_
  6
Continuous
 62
     7
100
AcDbLine
 10
58.13118302549032
 20
103.0397947364345
 30
0.0
 11
58.73118302549034
 21
103.0397947364345
 31
0.0
  0
LINE
  5
12D
330
1F
100
AcDbEntity
  8
Sichtbare_Kanten_TC_020513_DIN_
  6
Continuous
 62
     7
100
AcDbLine
 10
60.13118302549032
 20
103.0397947364345
 30
0.0
 11
61.39118302549036
 21
103.0397947364345
 31
0.0
  0
LINE
  5
12E
330
1F
100
AcDbEntity
  8
Sichtbare_Kanten_TC_020513_DIN_
  6
Continuous
 62
     7
100
AcDbLine
 10
56.13118302549032
 20
108.0397947364345
 30
0.0
 11
56.73118302549034
 21
108.0397947364345
 31
0.0
  0
LINE
  5
12F
330
1F
100
AcDbEntity
  8
Sichtbare_Kanten_TC_020513_DIN_
  6
Continuous
 62
     7
100
AcDbLine
 10
56.13118302549032
 20
103.0397947364345
 30
0.0
 11
56.73118302549034
 21
103.0397947364345
 31
0.0
  0
LINE
  5
130
330
1F
100
AcDbEntity
  8
Sichtbare_Kanten_TC_020513_DIN_
  6
Continuous
 62
     7
100
AcDbLine
 10
61.39118302549036
 20
107.0397947364345
 30
0.0
 11
61.48118302549034
 21
107.0397947364345
 31
0.0
  0
LINE
  5
131
330
1F
100
AcDbEntity
  8
Sichtbare_Kanten_TC_020513_DIN_
  6
Continuous
 62
     7
100
AcDbLine
 10
61.39118302549036
 20
104.0397947364345
 30
0.0
 11
61.48118302549034
 21
104.0397947364345
 31
0.0
  0
LINE
  5
132
330
1F
100
AcDbEntity
  8
Sichtbare_Kanten_TC_020513_DIN_
  6
Continuous
 62
     7
100
AcDbLine
 10
131.7311830254901
 20
76.1197947364343
 30
0.0
 11
131.7311830254901
 21
88.44979473643431
 31
0.0
  0
LINE
  5
133
330
1F
100
AcDbEntity
  8
Sichtbare_Kanten_TC_020513_DIN_
  6
Continuous
 62
     7
100
AcDbLine
 10
131.7311830254901
 20
76.1197947364343
 30
0.0
 11
131.7311830254901
 21
63.53979473643428
 31
0.0
  0
LINE
  5
134
330
1F
100
AcDbEntity
  8
Sichtbare_Kanten_TC_020513_DIN_
  6
Continuous
 62
     7
100
AcDbLine
 10
131.7311830254901
 20
88.44979473643431
 30
0.0
 11
119.9811830254901
 21
88.44979473643431
 31
0.0
  0
LINE
  5
135
330
1F
100
AcDbEntity
  8
Sichtbare_Kanten_TC_020513_DIN_
  6
Continuous
 62
     7
100
AcDbLine
 10
93.73118302549005
 20
115.7897947364345
 30
0.0
 11
92.98118302549005
 21
115.7897947364345
 31
0.0
  0
LINE
  5
136
330
1F
100
AcDbEntity
  8
Sichtbare_Kanten_TC_020513_DIN_
  6
Continuous
 62
     7
100
AcDbLine
 10
92.98118302549005
 20
115.7897947364345
 30
0.0
 11
92.98118302549005
 21
114.7423586610345
 31
0.0
  0
LINE
  5
137
330
1F
100
AcDbEntity
  8
Sichtbare_Kanten_TC_020513_DIN_
  6
Continuous
 62
     7
100
AcDbLine
 10
92.98118302549005
 20
114.7423586610345
 30
0.0
 11
93.60625241211807
 21
115.1029756148585
 31
0.0
  0
LINE
  5
138
330
1F
100
AcDbEntity
  8
Sichtbare_Kanten_TC_020513_DIN_
  6
Continuous
 62
     7
100
AcDbLine
 10
93.85611363886306
 20
114.6698828218335
 30
0.0
 11
92.85611363886306
 21
114.0929597449105
 31
0.0
  0
LINE
  5
139
330
1F
100
AcDbEntity
  8
Sichtbare_Kanten_TC_020513_DIN_
  6
Continuous
 62
     7
100
AcDbLine
 10
92.48118302549005
 20
114.3095061414225
 30
0.0
 11
92.48118302549005
 21
117.7700833314455
 31
0.0
  0
LINE
  5
13A
330
1F
100
AcDbEntity
  8
Sichtbare_Kanten_TC_020513_DIN_
  6
Continuous
 62
     7
100
AcDbLine
 10
92.98118302549005
 20
116.2897947364345
 30
0.0
 11
93.73118302549005
 21
116.2897947364345
 31
0.0
  0
LINE
  5
13B
330
1F
100
AcDbEntity
  8
Sichtbare_Kanten_TC_020513_DIN_
  6
Continuous
 62
     7
100
AcDbLine
 10
92.98118302549005
 20
117.3372308118345
 30
0.0
 11
92.98118302549005
 21
116.2897947364345
 31
0.0
  0
LINE
  5
13C
330
1F
100
AcDbEntity
  8
Sichtbare_Kanten_TC_020513_DIN_
  6
Continuous
 62
     7
100
AcDbLine
 10
93.60625241211807
 20
116.9766138580105
 30
0.0
 11
92.98118302549005
 21
117.3372308118345
 31
0.0
  0
LINE
  5
13D
330
1F
100
AcDbEntity
  8
Sichtbare_Kanten_TC_020513_DIN_
  6
Continuous
 62
     7
100
AcDbLine
 10
92.85611363886306
 20
117.9866297279575
 30
0.0
 11
93.85611363886306
 21
117.4097066510345
 31
0.0
  0
LINE
  5
13E
330
1F
100
AcDbEntity
  8
Sichtbare_Kanten_TC_020513_DIN_
  6
Continuous
 62
     7
100
AcDbLine
 10
87.43118302549033
 20
114.9152753721925
 30
0.0
 11
87.43118302549033
 21
117.1643141006765
 31
0.0
  0
LINE
  5
13F
330
1F
100
AcDbEntity
  8
Sichtbare_Kanten_TC_020513_DIN_
  6
Continuous
 62
     7
100
AcDbLine
 10
87.93118302549033
 20
117.1643141006765
 30
0.0
 11
87.93118302549033
 21
114.9152753721925
 31
0.0
  0
LINE
  5
140
330
1F
100
AcDbEntity
  8
Sichtbare_Kanten_TC_020513_DIN_
  6
Continuous
 62
     7
100
AcDbLine
 10
96.73090532483008
 20
116.0397947364345
 30
0.0
 11
90.73118302549005
 21
119.5011729860535
 31
0.0
  0
LINE
  5
141
330
1F
100
AcDbEntity
  8
Sichtbare_Kanten_TC_020513_DIN_
  6
Continuous
 62
     7
100
AcDbLine
 10
90.73118302549005
 20
119.5011729860535
 30
0.0
 11
84.73146072615043
 21
116.0397947364345
 31
0.0
  0
LINE
  5
142
330
1F
100
AcDbEntity
  8
Sichtbare_Kanten_TC_020513_DIN_
  6
Continuous
 62
     7
100
AcDbLine
 10
90.73118302549005
 20
119.7897947364345
 30
0.0
 11
97.23118302549005
 21
116.0397947364345
 31
0.0
  0
LINE
  5
143
330
1F
100
AcDbEntity
  8
Sichtbare_Kanten_TC_020513_DIN_
  6
Continuous
 62
     7
100
AcDbLine
 10
97.23118302549005
 20
116.0397947364345
 30
0.0
 11
90.73118302549005
 21
112.2897947364345
 31
0.0
  0
LINE
  5
144
330
1F
100
AcDbEntity
  8
Sichtbare_Kanten_TC_020513_DIN_
  6
Continuous
 62
     7
100
AcDbLine
 10
84.73146072615043
 20
116.0397947364345
 30
0.0
 11
90.73118302549005
 21
112.5784164868155
 31
0.0
  0
LINE
  5
145
330
1F
100
AcDbEntity
  8
Sichtbare_Kanten_TC_020513_DIN_
  6
Continuous
 62
     7
100
AcDbLine
 10
90.73118302549005
 20
112.5784164868155
 30
0.0
 11
96.73090532483008
 21
116.0397947364345
 31
0.0
  0
LINE
  5
146
330
1F
100
AcDbEntity
  8
Sichtbare_Kanten_TC_020513_DIN_
  6
Continuous
 62
     7
100
AcDbLine
 10
90.73118302549005
 20
112.2897947364345
 30
0.0
 11
84.23118302549034
 21
116.0397947364345
 31
0.0
  0
LINE
  5
147
330
1F
100
AcDbEntity
  8
Sichtbare_Kanten_TC_020513_DIN_
  6
Continuous
 62
     7
100
AcDbLine
 10
84.23118302549034
 20
116.0397947364345
 30
0.0
 11
90.73118302549005
 21
119.7897947364345
 31
0.0
  0
LINE
  5
148
330
1F
100
AcDbEntity
  8
Sichtbare_Kanten_TC_020513_DIN_
  6
Continuous
 62
     7
100
AcDbLine
 10
90.60625241211807
 20
112.9391135910645
 30
0.0
 11
88.55625241211794
 21
114.1218058987575
 31
0.0
  0
LINE
  5
149
330
1F
100
AcDbEntity
  8
Sichtbare_Kanten_TC_020513_DIN_
  6
Continuous
 62
     7
100
AcDbLine
 10
88.43118302549027
 20
114.3383522952695
 30
0.0
 11
88.43118302549033
 21
117.7412371775995
 31
0.0
  0
LINE
  5
14A
330
1F
100
AcDbEntity
  8
Sichtbare_Kanten_TC_020513_DIN_
  6
Continuous
 62
     7
100
AcDbLine
 10
88.93118302549004
 20
114.4827432764195
 30
0.0
 11
90.85611363886306
 21
113.3722063840885
 31
0.0
  0
LINE
  5
14B
330
1F
100
AcDbEntity
  8
Sichtbare_Kanten_TC_020513_DIN_
  6
Continuous
 62
     7
100
AcDbLine
 10
88.93118302549004
 20
117.7412371775995
 30
0.0
 11
88.93118302549004
 21
114.4827432764195
 31
0.0
  0
LINE
  5
14C
330
1F
100
AcDbEntity
  8
Sichtbare_Kanten_TC_020513_DIN_
  6
Continuous
 62
     7
100
AcDbLine
 10
89.93366893181707
 20
118.4936333422485
 30
0.0
 11
90.73118302549005
 21
117.3922984115275
 31
0.0
  0
LINE
  5
14D
330
1F
100
AcDbEntity
  8
Sichtbare_Kanten_TC_020513_DIN_
  6
Continuous
 62
     7
100
AcDbLine
 10
90.73118302549005
 20
117.3922984115275
 30
0.0
 11
91.52869711916304
 21
118.4936333422485
 31
0.0
  0
LINE
  5
14E
330
1F
100
AcDbEntity
  8
Sichtbare_Kanten_TC_020513_DIN_
  6
Continuous
 62
     7
100
AcDbLine
 10
91.98118302549005
 20
118.3470064083685
 30
0.0
 11
91.98118302549005
 21
113.7325830644995
 31
0.0
  0
LINE
  5
14F
330
1F
100
AcDbEntity
  8
Sichtbare_Kanten_TC_020513_DIN_
  6
Continuous
 62
     7
100
AcDbLine
 10
91.48118302549005
 20
113.7325830644995
 30
0.0
 11
91.48118302549005
 21
117.5755146122255
 31
0.0
  0
LINE
  5
150
330
1F
100
AcDbEntity
  8
Sichtbare_Kanten_TC_020513_DIN_
  6
Continuous
 62
     7
100
AcDbLine
 10
91.48118302549005
 20
117.5755146122255
 30
0.0
 11
90.73118302549005
 21
116.5397947364345
 31
0.0
  0
LINE
  5
151
330
1F
100
AcDbEntity
  8
Sichtbare_Kanten_TC_020513_DIN_
  6
Continuous
 62
     7
100
AcDbLine
 10
89.48118302549005
 20
114.9152753721925
 30
0.0
 11
89.48118302549005
 21
118.3470064083685
 31
0.0
  0
LINE
  5
152
330
1F
100
AcDbEntity
  8
Sichtbare_Kanten_TC_020513_DIN_
  6
Continuous
 62
     7
100
AcDbLine
 10
89.98118302549005
 20
117.5755146122255
 30
0.0
 11
89.98118302549005
 21
114.9152753721925
 31
0.0
  0
LINE
  5
153
330
1F
100
AcDbEntity
  8
Sichtbare_Kanten_TC_020513_DIN_
  6
Continuous
 62
     7
100
AcDbLine
 10
90.73118302549005
 20
116.5397947364345
 30
0.0
 11
89.98118302549005
 21
117.5755146122255
 31
0.0
  0
LINE
  5
154
330
1F
100
AcDbEntity
  8
Sichtbare_Kanten_TC_020513_DIN_
  6
Continuous
 62
     7
100
AcDbLine
 10
109.8546658010691
 20
111.3406030429315
 30
0.0
 11
110.2230642663271
 21
112.7154848327045
 31
0.0
  0
LINE
  5
155
330
1F
100
AcDbEntity
  8
Sichtbare_Kanten_TC_020513_DIN_
  6
Continuous
 62
     7
100
AcDbLine
 10
110.4645457228991
 20
112.9007800714295
 30
0.0
 11
119.93118302549
 21
112.9007800714295
 31
0.0
  0
LINE
  5
156
330
1F
100
AcDbEntity
  8
Sichtbare_Kanten_TC_020513_DIN_
  6
Continuous
 62
     7
100
AcDbLine
 10
119.93118302549
 20
122.9007800714295
 30
0.0
 11
117.9645457229
 21
122.9007800714295
 31
0.0
  0
LINE
  5
157
330
1F
100
AcDbEntity
  8
Sichtbare_Kanten_TC_020513_DIN_
  6
Continuous
 62
     7
100
AcDbLine
 10
117.1985012797811
 20
122.5435676811155
 30
0.0
 11
116.119775587354
 21
121.2579924617425
 31
0.0
  0
LINE
  5
158
330
1F
100
AcDbEntity
  8
Sichtbare_Kanten_TC_020513_DIN_
  6
Continuous
 62
     7
100
AcDbLine
 10
115.353731144235
 20
120.9007800714295
 30
0.0
 11
110.4645457229
 21
120.9007800714295
 31
0.0
  0
LINE
  5
159
330
1F
100
AcDbEntity
  8
Sichtbare_Kanten_TC_020513_DIN_
  6
Continuous
 62
     7
100
AcDbLine
 10
108.353396099972
 20
122.7174173740205
 30
0.0
 11
107.03126099324
 21
122.7174173740205
 31
0.0
  0
LINE
  5
15A
330
1F
100
AcDbEntity
  8
Sichtbare_Kanten_TC_020513_DIN_
  6
Continuous
 62
     7
100
AcDbLine
 10
105.099409340662
 20
122.7174173740205
 30
0.0
 11
107.03126099324
 21
122.7174173740205
 31
0.0
  0
LINE
  5
15B
330
1F
100
AcDbEntity
  8
Sichtbare_Kanten_TC_020513_DIN_
  6
Continuous
 62
     7
100
AcDbLine
 10
107.990419728214
 20
105.2405663062455
 30
0.0
 11
109.618965381016
 21
110.7489374764945
 31
0.0
  0
LINE
  5
15C
330
1F
100
AcDbEntity
  8
Sichtbare_Kanten_TC_020513_DIN_
  6
Continuous
 62
     7
100
AcDbLine
 10
107.03126099324
 20
124.1174173740205
 30
0.0
 11
105.099409340662
 21
124.1174173740205
 31
0.0
  0
LINE
  5
15D
330
1F
100
AcDbEntity
  8
Sichtbare_Kanten_TC_020513_DIN_
  6
Continuous
 62
     7
100
AcDbLine
 10
107.03126099324
 20
124.1174173740205
 30
0.0
 11
108.353396099972
 21
124.1174173740205
 31
0.0
  0
LINE
  5
15E
330
1F
100
AcDbEntity
  8
Sichtbare_Kanten_TC_020513_DIN_
  6
Continuous
 62
     7
100
AcDbLine
 10
122.7311830254901
 20
125.3832560052245
 30
0.0
 11
122.7311830254901
 21
123.3360363206255
 31
0.0
  0
LINE
  5
15F
330
1F
100
AcDbEntity
  8
Sichtbare_Kanten_TC_020513_DIN_
  6
Continuous
 62
     7
100
AcDbLine
 10
121.33118302549
 20
123.3360363206255
 30
0.0
 11
121.33118302549
 21
125.3832560052245
 31
0.0
  0
LINE
  5
160
330
1F
100
AcDbEntity
  8
Sichtbare_Kanten_TC_020513_DIN_
  6
Continuous
 62
     7
100
AcDbLine
 10
122.7311830254901
 20
112.9007800714295
 30
0.0
 11
122.7311830254901
 21
108.9319444995275
 31
0.0
  0
LINE
  5
161
330
1F
100
AcDbEntity
  8
Sichtbare_Kanten_TC_020513_DIN_
  6
Continuous
 62
     7
100
AcDbLine
 10
122.7311830254901
 20
108.9319444995275
 30
0.0
 11
122.7311830254901
 21
108.5833726078085
 31
0.0
  0
LINE
  5
162
330
1F
100
AcDbEntity
  8
Sichtbare_Kanten_TC_020513_DIN_
  6
Continuous
 62
     7
100
AcDbLine
 10
122.7311830254901
 20
108.5833726078085
 30
0.0
 11
122.7311830254901
 21
103.7553930517055
 31
0.0
  0
LINE
  5
163
330
1F
100
AcDbEntity
  8
Sichtbare_Kanten_TC_020513_DIN_
  6
Continuous
 62
     7
100
AcDbLine
 10
122.7311830254901
 20
95.53979473643429
 30
0.0
 11
122.7311830254901
 21
103.7553930517055
 31
0.0
  0
LINE
  5
164
330
1F
100
AcDbEntity
  8
Sichtbare_Kanten_TC_020513_DIN_
  6
Continuous
 62
     7
100
AcDbLine
 10
122.7311830254901
 20
95.53979473643429
 30
0.0
 11
122.7311830254901
 21
95.40213982142691
 31
0.0
  0
LINE
  5
165
330
1F
100
AcDbEntity
  8
Sichtbare_Kanten_TC_020513_DIN_
  6
Continuous
 62
     7
100
AcDbLine
 10
122.7311830254901
 20
125.3832560052245
 30
0.0
 11
122.7311830254901
 21
130.5397947364345
 31
0.0
  0
LINE
  5
166
330
1F
100
AcDbEntity
  8
Sichtbare_Kanten_TC_020513_DIN_
  6
Continuous
 62
     7
100
AcDbLine
 10
121.33118302549
 20
130.5397947364345
 30
0.0
 11
121.33118302549
 21
125.3832560052245
 31
0.0
  0
LINE
  5
167
330
1F
100
AcDbEntity
  8
Sichtbare_Kanten_TC_020513_DIN_
  6
Continuous
 62
     7
100
AcDbLine
 10
121.33118302549
 20
95.40213982142691
 30
0.0
 11
121.33118302549
 21
95.53979473643429
 31
0.0
  0
LINE
  5
168
330
1F
100
AcDbEntity
  8
Sichtbare_Kanten_TC_020513_DIN_
  6
Continuous
 62
     7
100
AcDbLine
 10
121.33118302549
 20
103.7553930517055
 30
0.0
 11
121.33118302549
 21
95.53979473643429
 31
0.0
  0
LINE
  5
169
330
1F
100
AcDbEntity
  8
Sichtbare_Kanten_TC_020513_DIN_
  6
Continuous
 62
     7
100
AcDbLine
 10
121.33118302549
 20
103.7553930517055
 30
0.0
 11
121.33118302549
 21
108.5833726078085
 31
0.0
  0
LINE
  5
16A
330
1F
100
AcDbEntity
  8
Sichtbare_Kanten_TC_020513_DIN_
  6
Continuous
 62
     7
100
AcDbLine
 10
121.33118302549
 20
108.5833726078085
 30
0.0
 11
121.33118302549
 21
108.9319444995275
 31
0.0
  0
LINE
  5
16B
330
1F
100
AcDbEntity
  8
Sichtbare_Kanten_TC_020513_DIN_
  6
Continuous
 62
     7
100
AcDbLine
 10
121.33118302549
 20
108.9319444995275
 30
0.0
 11
121.33118302549
 21
112.9007800714295
 31
0.0
  0
LINE
  5
16C
330
1F
100
AcDbEntity
  8
Sichtbare_Kanten_TC_020513_DIN_
  6
Continuous
 62
     7
100
AcDbLine
 10
122.7311830254901
 20
95.53979473643429
 30
0.0
 11
121.33118302549
 21
95.53979473643429
 31
0.0
  0
LINE
  5
16D
330
1F
100
AcDbEntity
  8
Sichtbare_Kanten_TC_020513_DIN_
  6
Continuous
 62
     7
100
AcDbLine
 10
122.7311830254901
 20
130.5397947364345
 30
0.0
 11
121.33118302549
 21
130.5397947364345
 31
0.0
  0
LINE
  5
16E
330
1F
100
AcDbEntity
  8
Sichtbare_Kanten_TC_020513_DIN_
  6
Continuous
 62
     7
100
AcDbLine
 10
122.83118302549
 20
95.30213982142689
 30
0.0
 11
123.0651715969061
 21
95.30213982142689
 31
0.0
  0
LINE
  5
16F
330
1F
100
AcDbEntity
  8
Sichtbare_Kanten_TC_020513_DIN_
  6
Continuous
 62
     7
100
AcDbLine
 10
124.7311830254901
 20
95.30213982142689
 30
0.0
 11
125.268837940498
 21
95.30213982142689
 31
0.0
  0
LINE
  5
170
330
1F
100
AcDbEntity
  8
Sichtbare_Kanten_TC_020513_DIN_
  6
Continuous
 62
     7
100
AcDbLine
 10
125.768837940498
 20
95.30213982142689
 30
0.0
 11
125.268837940498
 21
95.30213982142689
 31
0.0
  0
LINE
  5
171
330
1F
100
AcDbEntity
  8
Sichtbare_Kanten_TC_020513_DIN_
  6
Continuous
 62
     7
100
AcDbLine
 10
125.268837940498
 20
93.90213982142691
 30
0.0
 11
124.7311830254901
 21
93.90213982142691
 31
0.0
  0
LINE
  5
172
330
1F
100
AcDbEntity
  8
Sichtbare_Kanten_TC_020513_DIN_
  6
Continuous
 62
     7
100
AcDbLine
 10
125.268837940498
 20
93.90213982142691
 30
0.0
 11
125.768837940498
 21
93.90213982142691
 31
0.0
  0
LINE
  5
173
330
1F
100
AcDbEntity
  8
Sichtbare_Kanten_TC_020513_DIN_
  6
Continuous
 62
     7
100
AcDbLine
 10
125.768837940498
 20
95.30213982142689
 30
0.0
 11
125.768837940498
 21
93.90213982142691
 31
0.0
  0
LINE
  5
174
330
1F
100
AcDbEntity
  8
Sichtbare_Kanten_TC_020513_DIN_
  6
Continuous
 62
     7
100
AcDbLine
 10
109.618965381016
 20
110.1572719100575
 30
0.0
 11
107.990419728214
 21
104.6489007398085
 31
0.0
  0
LINE
  5
175
330
1F
100
AcDbEntity
  8
Sichtbare_Kanten_TC_020513_DIN_
  6
Continuous
 62
     7
100
AcDbLine
 10
66.10863490674564
 20
120.9007800714295
 30
0.0
 11
70.99782032808105
 21
120.9007800714295
 31
0.0
  0
LINE
  5
176
330
1F
100
AcDbEntity
  8
Sichtbare_Kanten_TC_020513_DIN_
  6
Continuous
 62
     7
100
AcDbLine
 10
64.26386477120008
 20
122.5435676811155
 30
0.0
 11
65.34259046362666
 21
121.2579924617425
 31
0.0
  0
LINE
  5
177
330
1F
100
AcDbEntity
  8
Sichtbare_Kanten_TC_020513_DIN_
  6
Continuous
 62
     7
100
AcDbLine
 10
61.53118302549035
 20
122.9007800714295
 30
0.0
 11
63.49782032808105
 21
122.9007800714295
 31
0.0
  0
LINE
  5
178
330
1F
100
AcDbEntity
  8
Sichtbare_Kanten_TC_020513_DIN_
  6
Continuous
 62
     7
100
AcDbLine
 10
70.99782032808105
 20
112.9007800714295
 30
0.0
 11
61.53118302549035
 21
112.9007800714295
 31
0.0
  0
LINE
  5
179
330
1F
100
AcDbEntity
  8
Sichtbare_Kanten_TC_020513_DIN_
  6
Continuous
 62
     7
100
AcDbLine
 10
71.60770024991126
 20
111.3406030429315
 30
0.0
 11
71.23930178465338
 21
112.7154848327045
 31
0.0
  0
LINE
  5
17A
330
1F
100
AcDbEntity
  8
Sichtbare_Kanten_TC_020513_DIN_
  6
Continuous
 62
     7
100
AcDbLine
 10
58.73118302549034
 20
95.53979473643429
 30
0.0
 11
58.73118302549034
 21
95.40213982142691
 31
0.0
  0
LINE
  5
17B
330
1F
100
AcDbEntity
  8
Sichtbare_Kanten_TC_020513_DIN_
  6
Continuous
 62
     7
100
AcDbLine
 10
58.73118302549034
 20
95.53979473643429
 30
0.0
 11
58.73118302549034
 21
103.7553930517055
 31
0.0
  0
LINE
  5
17C
330
1F
100
AcDbEntity
  8
Sichtbare_Kanten_TC_020513_DIN_
  6
Continuous
 62
     7
100
AcDbLine
 10
58.73118302549034
 20
108.5833726078085
 30
0.0
 11
58.73118302549034
 21
103.7553930517055
 31
0.0
  0
LINE
  5
17D
330
1F
100
AcDbEntity
  8
Sichtbare_Kanten_TC_020513_DIN_
  6
Continuous
 62
     7
100
AcDbLine
 10
58.73118302549034
 20
108.9319444995275
 30
0.0
 11
58.73118302549034
 21
108.5833726078085
 31
0.0
  0
LINE
  5
17E
330
1F
100
AcDbEntity
  8
Sichtbare_Kanten_TC_020513_DIN_
  6
Continuous
 62
     7
100
AcDbLine
 10
58.73118302549034
 20
112.9007800714295
 30
0.0
 11
58.73118302549034
 21
108.9319444995275
 31
0.0
  0
LINE
  5
17F
330
1F
100
AcDbEntity
  8
Sichtbare_Kanten_TC_020513_DIN_
  6
Continuous
 62
     7
100
AcDbLine
 10
58.73118302549034
 20
125.3832560052245
 30
0.0
 11
58.73118302549034
 21
123.3360363206255
 31
0.0
  0
LINE
  5
180
330
1F
100
AcDbEntity
  8
Sichtbare_Kanten_TC_020513_DIN_
  6
Continuous
 62
     7
100
AcDbLine
 10
58.73118302549034
 20
125.3832560052245
 30
0.0
 11
58.73118302549034
 21
130.5397947364345
 31
0.0
  0
LINE
  5
181
330
1F
100
AcDbEntity
  8
Sichtbare_Kanten_TC_020513_DIN_
  6
Continuous
 62
     7
100
AcDbLine
 10
60.13118302549032
 20
130.5397947364345
 30
0.0
 11
60.13118302549032
 21
125.3832560052245
 31
0.0
  0
LINE
  5
182
330
1F
100
AcDbEntity
  8
Sichtbare_Kanten_TC_020513_DIN_
  6
Continuous
 62
     7
100
AcDbLine
 10
60.13118302549032
 20
123.3360363206255
 30
0.0
 11
60.13118302549032
 21
125.3832560052245
 31
0.0
  0
LINE
  5
183
330
1F
100
AcDbEntity
  8
Sichtbare_Kanten_TC_020513_DIN_
  6
Continuous
 62
     7
100
AcDbLine
 10
60.13118302549032
 20
108.9319444995275
 30
0.0
 11
60.13118302549032
 21
112.9007800714295
 31
0.0
  0
LINE
  5
184
330
1F
100
AcDbEntity
  8
Sichtbare_Kanten_TC_020513_DIN_
  6
Continuous
 62
     7
100
AcDbLine
 10
60.13118302549032
 20
108.5833726078085
 30
0.0
 11
60.13118302549032
 21
108.9319444995275
 31
0.0
  0
LINE
  5
185
330
1F
100
AcDbEntity
  8
Sichtbare_Kanten_TC_020513_DIN_
  6
Continuous
 62
     7
100
AcDbLine
 10
60.13118302549032
 20
103.7553930517055
 30
0.0
 11
60.13118302549032
 21
108.5833726078085
 31
0.0
  0
LINE
  5
186
330
1F
100
AcDbEntity
  8
Sichtbare_Kanten_TC_020513_DIN_
  6
Continuous
 62
     7
100
AcDbLine
 10
60.13118302549032
 20
103.7553930517055
 30
0.0
 11
60.13118302549032
 21
95.53979473643429
 31
0.0
  0
LINE
  5
187
330
1F
100
AcDbEntity
  8
Sichtbare_Kanten_TC_020513_DIN_
  6
Continuous
 62
     7
100
AcDbLine
 10
60.13118302549032
 20
95.40213982142691
 30
0.0
 11
60.13118302549032
 21
95.53979473643429
 31
0.0
  0
LINE
  5
188
330
1F
100
AcDbEntity
  8
Sichtbare_Kanten_TC_020513_DIN_
  6
Continuous
 62
     7
100
AcDbLine
 10
58.73118302549034
 20
95.53979473643429
 30
0.0
 11
60.13118302549032
 21
95.53979473643429
 31
0.0
  0
LINE
  5
189
330
1F
100
AcDbEntity
  8
Sichtbare_Kanten_TC_020513_DIN_
  6
Continuous
 62
     7
100
AcDbLine
 10
58.73118302549034
 20
130.5397947364345
 30
0.0
 11
60.13118302549032
 21
130.5397947364345
 31
0.0
  0
LINE
  5
18A
330
1F
100
AcDbEntity
  8
Sichtbare_Kanten_TC_020513_DIN_
  6
Continuous
 62
     7
100
AcDbLine
 10
74.43110505774052
 20
124.1174173740205
 30
0.0
 11
76.36295671031866
 21
124.1174173740205
 31
0.0
  0
LINE
  5
18B
330
1F
100
AcDbEntity
  8
Sichtbare_Kanten_TC_020513_DIN_
  6
Continuous
 62
     7
100
AcDbLine
 10
76.36295671031866
 20
122.7174173740205
 30
0.0
 11
74.43110505774052
 21
122.7174173740205
 31
0.0
  0
LINE
  5
18C
330
1F
100
AcDbEntity
  8
Sichtbare_Kanten_TC_020513_DIN_
  6
Continuous
 62
     7
100
AcDbLine
 10
73.10896995100813
 20
122.7174173740205
 30
0.0
 11
74.43110505774052
 21
122.7174173740205
 31
0.0
  0
LINE
  5
18D
330
1F
100
AcDbEntity
  8
Sichtbare_Kanten_TC_020513_DIN_
  6
Continuous
 62
     7
100
AcDbLine
 10
74.43110505774052
 20
124.1174173740205
 30
0.0
 11
73.10896995100813
 21
124.1174173740205
 31
0.0
  0
LINE
  5
18E
330
1F
100
AcDbEntity
  8
Sichtbare_Kanten_TC_020513_DIN_
  6
Continuous
 62
     7
100
AcDbLine
 10
58.63118302549032
 20
95.30213982142689
 30
0.0
 11
58.39719445407457
 21
95.30213982142689
 31
0.0
  0
LINE
  5
18F
330
1F
100
AcDbEntity
  8
Sichtbare_Kanten_TC_020513_DIN_
  6
Continuous
 62
     7
100
AcDbLine
 10
56.73118302549034
 20
95.30213982142689
 30
0.0
 11
56.19352811048293
 21
95.30213982142689
 31
0.0
  0
LINE
  5
190
330
1F
100
AcDbEntity
  8
Sichtbare_Kanten_TC_020513_DIN_
  6
Continuous
 62
     7
100
AcDbLine
 10
56.19352811048293
 20
93.90213982142691
 30
0.0
 11
56.73118302549034
 21
93.90213982142691
 31
0.0
  0
LINE
  5
191
330
1F
100
AcDbEntity
  8
Sichtbare_Kanten_TC_020513_DIN_
  6
Continuous
 62
     7
100
AcDbLine
 10
56.19352811048293
 20
93.90213982142691
 30
0.0
 11
55.69352811048293
 21
93.90213982142691
 31
0.0
  0
LINE
  5
192
330
1F
100
AcDbEntity
  8
Sichtbare_Kanten_TC_020513_DIN_
  6
Continuous
 62
     7
100
AcDbLine
 10
55.69352811048293
 20
95.30213982142689
 30
0.0
 11
56.19352811048293
 21
95.30213982142689
 31
0.0
  0
LINE
  5
193
330
1F
100
AcDbEntity
  8
Sichtbare_Kanten_TC_020513_DIN_
  6
Continuous
 62
     7
100
AcDbLine
 10
55.69352811048293
 20
95.30213982142689
 30
0.0
 11
55.69352811048293
 21
93.90213982142691
 31
0.0
  0
LINE
  5
194
330
1F
100
AcDbEntity
  8
Sichtbare_Kanten_TC_020513_DIN_
  6
Continuous
 62
     7
100
AcDbLine
 10
71.84340066996486
 20
110.1572719100585
 30
0.0
 11
73.47194632276683
 21
104.6489007398085
 31
0.0
  0
LINE
  5
195
330
1F
100
AcDbEntity
  8
Sichtbare_Kanten_TC_020513_DIN_
  6
Continuous
 62
     7
100
AcDbLine
 10
73.47194632276683
 20
105.2405663062455
 30
0.0
 11
71.84340066996486
 21
110.7489374764945
 31
0.0
  0
LINE
  5
196
330
1F
100
AcDbEntity
  8
Sichtbare_Kanten_TC_020513_DIN_
  6
Continuous
 62
     7
100
AcDbLine
 10
105.099409340662
 20
122.7174173740205
 30
0.0
 11
76.36295671031866
 21
122.7174173740205
 31
0.0
  0
LINE
  5
197
330
1F
100
AcDbEntity
  8
Sichtbare_Kanten_TC_020513_DIN_
  6
Continuous
 62
     7
100
AcDbLine
 10
105.099409340662
 20
124.1174173740205
 30
0.0
 11
76.36295671031866
 21
124.1174173740205
 31
0.0
  0
LINE
  5
198
330
1F
100
AcDbEntity
  8
Sichtbare_Kanten_TC_020513_DIN_
  6
Continuous
 62
     7
100
AcDbLine
 10
75.40379797534496
 20
103.8970901641925
 30
0.0
 11
106.0585680756361
 21
103.8970901641925
 31
0.0
  0
LINE
  5
199
330
1F
100
AcDbEntity
  8
Sichtbare_Kanten_TC_020513_DIN_
  6
Continuous
 62
     7
100
AcDbLine
 10
106.0585680756361
 20
103.3054245977555
 30
0.0
 11
75.40379797534496
 21
103.3054245977555
 31
0.0
  0
LINE
  5
19A
330
1F
100
AcDbEntity
  8
Sichtbare_Kanten_TC_020513_DIN_
  6
Continuous
 62
     7
100
AcDbLine
 10
71.84340066996486
 20
110.4886029989425
 30
0.0
 11
71.84340066996486
 21
110.1572719100585
 31
0.0
  0
LINE
  5
19B
330
1F
100
AcDbEntity
  8
Sichtbare_Kanten_TC_020513_DIN_
  6
Continuous
 62
     7
100
AcDbLine
 10
71.84340066996486
 20
110.7489374764945
 30
0.0
 11
71.84340066996486
 21
110.4886029989425
 31
0.0
  0
LINE
  5
19C
330
1F
100
AcDbEntity
  8
Sichtbare_Kanten_TC_020513_DIN_
  6
Continuous
 62
     7
100
AcDbLine
 10
58.73118302549034
 20
112.9007800714295
 30
0.0
 11
58.73118302549034
 21
123.3360363206255
 31
0.0
  0
LINE
  5
19D
330
1F
100
AcDbEntity
  8
Sichtbare_Kanten_TC_020513_DIN_
  6
Continuous
 62
     7
100
AcDbLine
 10
59.51518111271037
 20
123.3360363206255
 30
0.0
 11
60.13118302549032
 21
123.3360363206255
 31
0.0
  0
LINE
  5
19E
330
1F
100
AcDbEntity
  8
Sichtbare_Kanten_TC_020513_DIN_
  6
Continuous
 62
     7
100
AcDbLine
 10
58.73118302549034
 20
123.3360363206255
 30
0.0
 11
59.51518111271037
 21
123.3360363206255
 31
0.0
  0
LINE
  5
19F
330
1F
100
AcDbEntity
  8
Sichtbare_Kanten_TC_020513_DIN_
  6
Continuous
 62
     7
100
AcDbLine
 10
61.53118302549035
 20
112.9007800714295
 30
0.0
 11
58.73118302549034
 21
112.9007800714295
 31
0.0
  0
LINE
  5
1A0
330
1F
100
AcDbEntity
  8
Sichtbare_Kanten_TC_020513_DIN_
  6
Continuous
 62
     7
100
AcDbLine
 10
59.16212249714687
 20
122.9007800714295
 30
0.0
 11
61.53118302549035
 21
122.9007800714295
 31
0.0
  0
LINE
  5
1A1
330
1F
100
AcDbEntity
  8
Sichtbare_Kanten_TC_020513_DIN_
  6
Continuous
 62
     7
100
AcDbLine
 10
73.10896995100813
 20
123.3334185043015
 30
0.0
 11
73.10896995100813
 21
122.7174173740205
 31
0.0
  0
LINE
  5
1A2
330
1F
100
AcDbEntity
  8
Sichtbare_Kanten_TC_020513_DIN_
  6
Continuous
 62
     7
100
AcDbLine
 10
73.10896995100813
 20
124.1174173740205
 30
0.0
 11
73.10896995100813
 21
123.3334185043015
 31
0.0
  0
LINE
  5
1A3
330
1F
100
AcDbEntity
  8
Sichtbare_Kanten_TC_020513_DIN_
  6
Continuous
 62
     7
100
AcDbLine
 10
108.353396099972
 20
123.3334185043005
 30
0.0
 11
108.353396099972
 21
124.1174173740205
 31
0.0
  0
LINE
  5
1A4
330
1F
100
AcDbEntity
  8
Sichtbare_Kanten_TC_020513_DIN_
  6
Continuous
 62
     7
100
AcDbLine
 10
108.353396099972
 20
122.7174173740205
 30
0.0
 11
108.353396099972
 21
123.3334185043005
 31
0.0
  0
LINE
  5
1A5
330
1F
100
AcDbEntity
  8
Sichtbare_Kanten_TC_020513_DIN_
  6
Continuous
 62
     7
100
AcDbLine
 10
109.618965381016
 20
110.4886029989415
 30
0.0
 11
109.618965381016
 21
110.7489374764945
 31
0.0
  0
LINE
  5
1A6
330
1F
100
AcDbEntity
  8
Sichtbare_Kanten_TC_020513_DIN_
  6
Continuous
 62
     7
100
AcDbLine
 10
109.618965381016
 20
110.1572719100575
 30
0.0
 11
109.618965381016
 21
110.4886029989415
 31
0.0
  0
LINE
  5
1A7
330
1F
100
AcDbEntity
  8
Sichtbare_Kanten_TC_020513_DIN_
  6
Continuous
 62
     7
100
AcDbLine
 10
121.94718493827
 20
123.3360363206255
 30
0.0
 11
122.7311830254901
 21
123.3360363206255
 31
0.0
  0
LINE
  5
1A8
330
1F
100
AcDbEntity
  8
Sichtbare_Kanten_TC_020513_DIN_
  6
Continuous
 62
     7
100
AcDbLine
 10
121.33118302549
 20
123.3360363206255
 30
0.0
 11
121.94718493827
 21
123.3360363206255
 31
0.0
  0
LINE
  5
1A9
330
1F
100
AcDbEntity
  8
Sichtbare_Kanten_TC_020513_DIN_
  6
Continuous
 62
     7
100
AcDbLine
 10
119.93118302549
 20
122.9007800714295
 30
0.0
 11
122.300243553834
 21
122.9007800714295
 31
0.0
  0
LINE
  5
1AA
330
1F
100
AcDbEntity
  8
Sichtbare_Kanten_TC_020513_DIN_
  6
Continuous
 62
     7
100
AcDbLine
 10
122.7311830254901
 20
112.9007800714295
 30
0.0
 11
119.93118302549
 21
112.9007800714295
 31
0.0
  0
LINE
  5
1AB
330
1F
100
AcDbEntity
  8
Sichtbare_Kanten_TC_020513_DIN_
  6
Continuous
 62
     7
100
AcDbLine
 10
122.7311830254901
 20
123.3360363206255
 30
0.0
 11
122.7311830254901
 21
112.9007800714295
 31
0.0
  0
LINE
  5
1AC
330
1F
100
AcDbEntity
  8
Sichtbare_Kanten_TC_020513_DIN_
  6
Continuous
 62
     7
100
AcDbLine
 10
54.98118302549034
 20
156.5397947364345
 30
0.0
 11
54.98118302549034
 21
147.5397947364345
 31
0.0
  0
LINE
  5
1AD
330
1F
100
AcDbEntity
  8
Sichtbare_Kanten_TC_020513_DIN_
  6
Continuous
 62
     7
100
AcDbLine
 10
59.98118302549034
 20
147.5397947364345
 30
0.0
 11
54.98118302549034
 21
147.5397947364345
 31
0.0
  0
LINE
  5
1AE
330
1F
100
AcDbEntity
  8
Sichtbare_Kanten_TC_020513_DIN_
  6
Continuous
 62
     7
100
AcDbLine
 10
59.98118302549034
 20
156.5397947364345
 30
0.0
 11
54.98118302549034
 21
156.5397947364345
 31
0.0
  0
LINE
  5
1AF
330
1F
100
AcDbEntity
  8
Sichtbare_Kanten_TC_020513_DIN_
  6
Continuous
 62
     7
100
AcDbLine
 10
126.4811830254901
 20
156.5397947364345
 30
0.0
 11
126.4811830254901
 21
147.5397947364345
 31
0.0
  0
LINE
  5
1B0
330
1F
100
AcDbEntity
  8
Sichtbare_Kanten_TC_020513_DIN_
  6
Continuous
 62
     7
100
AcDbLine
 10
126.4811830254901
 20
147.5397947364345
 30
0.0
 11
121.4811830254901
 21
147.5397947364345
 31
0.0
  0
LINE
  5
1B1
330
1F
100
AcDbEntity
  8
Sichtbare_Kanten_TC_020513_DIN_
  6
Continuous
 62
     7
100
AcDbLine
 10
126.4811830254901
 20
156.5397947364345
 30
0.0
 11
121.4811830254901
 21
156.5397947364345
 31
0.0
  0
LINE
  5
1B2
330
1F
100
AcDbEntity
  8
Sichtbare_Kanten_TC_020513_DIN_
  6
Continuous
 62
     7
100
AcDbLine
 10
81.73118302549034
 20
177.0397947364345
 30
0.0
 11
81.73118302549034
 21
175.0397947364345
 31
0.0
  0
LINE
  5
1B3
330
1F
100
AcDbEntity
  8
Sichtbare_Kanten_TC_020513_DIN_
  6
Continuous
 62
     7
100
AcDbLine
 10
99.73118302549005
 20
175.0397947364345
 30
0.0
 11
99.73118302549005
 21
177.0397947364345
 31
0.0
  0
LINE
  5
1B4
330
1F
100
AcDbEntity
  8
Sichtbare_Kanten_TC_020513_DIN_
  6
Continuous
 62
     7
100
AcDbLine
 10
99.73118302549005
 20
177.0397947364345
 30
0.0
 11
81.73118302549034
 21
177.0397947364345
 31
0.0
  0
LINE
  5
1B5
330
1F
100
AcDbEntity
  8
Sichtbare_Kanten_TC_020513_DIN_
  6
Continuous
 62
     7
100
AcDbLine
 10
115.4811830254901
 20
134.0397947364345
 30
0.0
 11
65.98118302549034
 21
134.0397947364345
 31
0.0
  0
LINE
  5
1B6
330
1F
100
AcDbEntity
  8
Sichtbare_Kanten_TC_020513_DIN_
  6
Continuous
 62
     7
100
AcDbLine
 10
64.98118302549034
 20
135.0397947364345
 30
0.0
 11
64.98118302549034
 21
169.0397947364345
 31
0.0
  0
LINE
  5
1B7
330
1F
100
AcDbEntity
  8
Sichtbare_Kanten_TC_020513_DIN_
  6
Continuous
 62
     7
100
AcDbLine
 10
65.98118302549034
 20
170.0397947364345
 30
0.0
 11
115.4811830254901
 21
170.0397947364345
 31
0.0
  0
LINE
  5
1B8
330
1F
100
AcDbEntity
  8
Sichtbare_Kanten_TC_020513_DIN_
  6
Continuous
 62
     7
100
AcDbLine
 10
116.4811830254901
 20
169.0397947364345
 30
0.0
 11
116.4811830254901
 21
135.0397947364345
 31
0.0
  0
LINE
  5
1B9
330
1F
100
AcDbEntity
  8
Sichtbare_Kanten_TC_020513_DIN_
  6
Continuous
 62
     7
100
AcDbLine
 10
65.98118302549034
 20
175.0397947364345
 30
0.0
 11
115.4811830254901
 21
175.0397947364345
 31
0.0
  0
LINE
  5
1BA
330
1F
100
AcDbEntity
  8
Sichtbare_Kanten_TC_020513_DIN_
  6
Continuous
 62
     7
100
AcDbLine
 10
65.98118302549034
 20
174.0397947364345
 30
0.0
 11
115.4811830254901
 21
174.0397947364345
 31
0.0
  0
LINE
  5
1BB
330
1F
100
AcDbEntity
  8
Sichtbare_Kanten_TC_020513_DIN_
  6
Continuous
 62
     7
100
AcDbLine
 10
120.4811830254901
 20
169.0397947364345
 30
0.0
 11
120.4811830254901
 21
135.0397947364345
 31
0.0
  0
LINE
  5
1BC
330
1F
100
AcDbEntity
  8
Sichtbare_Kanten_TC_020513_DIN_
  6
Continuous
 62
     7
100
AcDbLine
 10
59.98118302549034
 20
135.0397947364345
 30
0.0
 11
59.98118302549034
 21
169.0397947364345
 31
0.0
  0
LINE
  5
1BD
330
1F
100
AcDbEntity
  8
Sichtbare_Kanten_TC_020513_DIN_
  6
Continuous
 62
     7
100
AcDbLine
 10
115.4811830254901
 20
129.0397947364345
 30
0.0
 11
65.98118302549034
 21
129.0397947364345
 31
0.0
  0
LINE
  5
1BE
330
1F
100
AcDbEntity
  8
Sichtbare_Kanten_TC_020513_DIN_
  6
Continuous
 62
     7
100
AcDbLine
 10
115.4811830254901
 20
130.0397947364345
 30
0.0
 11
65.98118302549034
 21
130.0397947364345
 31
0.0
  0
LINE
  5
1BF
330
1F
100
AcDbEntity
  8
Sichtbare_Kanten_TC_020513_DIN_
  6
Continuous
 62
     7
100
AcDbLine
 10
60.98118302549034
 20
135.0397947364345
 30
0.0
 11
60.98118302549034
 21
169.0397947364345
 31
0.0
  0
LINE
  5
1C0
330
1F
100
AcDbEntity
  8
Sichtbare_Kanten_TC_020513_DIN_
  6
Continuous
 62
     7
100
AcDbLine
 10
121.4811830254901
 20
169.0397947364345
 30
0.0
 11
121.4811830254901
 21
135.0397947364345
 31
0.0
  0
LINE
  5
1C1
330
1F
100
AcDbEntity
  8
Sichtbare_Kanten_TC_020513_DIN_
  6
Continuous
 62
     7
100
AcDbLine
 10
99.73118302549005
 20
124.1174173740205
 30
0.0
 11
99.73118302549005
 21
129.0397947364345
 31
0.0
  0
LINE
  5
1C2
330
1F
100
AcDbEntity
  8
Sichtbare_Kanten_TC_020513_DIN_
  6
Continuous
 62
     7
100
AcDbLine
 10
81.73118302549034
 20
129.0397947364345
 30
0.0
 11
81.73118302549034
 21
124.1174173740205
 31
0.0
  0
LINE
  5
1C3
330
1F
100
AcDbEntity
  8
Sichtbare_Kanten_TC_020513_DIN_
  6
Continuous
 62
     7
100
AcDbLine
 10
181.1509004810151
 20
119.8125780177215
 30
0.0
 11
180.944387395937
 21
117.9269204986035
 31
0.0
  0
LINE
  5
1C4
330
1F
100
AcDbEntity
  8
Sichtbare_Kanten_TC_020513_DIN_
  6
Continuous
 62
     7
100
AcDbLine
 10
180.6538723119041
 20
119.8670114551475
 30
0.0
 11
181.1509004810151
 21
119.8125780177215
 31
0.0
  0
LINE
  5
1C5
330
1F
100
AcDbEntity
  8
Sichtbare_Kanten_TC_020513_DIN_
  6
Continuous
 62
     7
100
AcDbLine
 10
180.5085184412411
 20
118.5397947364345
 30
0.0
 11
180.6538723119041
 21
119.8670114551475
 31
0.0
  0
LINE
  5
1C6
330
1F
100
AcDbEntity
  8
Sichtbare_Kanten_TC_020513_DIN_
  6
Continuous
 62
     7
100
AcDbLine
 10
235.377649445867
 20
93.32315743384359
 30
0.0
 11
235.377649445866
 21
96.1231574338436
 31
0.0
  0
LINE
  5
1C7
330
1F
100
AcDbEntity
  8
Sichtbare_Kanten_TC_020513_DIN_
  6
Continuous
 62
     7
100
AcDbLine
 10
242.377649445866
 20
96.12315743384349
 30
0.0
 11
242.377649445867
 21
93.32315743384348
 31
0.0
  0
LINE
  5
1C8
330
1F
100
AcDbEntity
  8
Sichtbare_Kanten_TC_020513_DIN_
  6
Continuous
 62
     7
100
AcDbLine
 10
242.377649445867
 20
93.32315743384348
 30
0.0
 11
235.377649445867
 21
93.32315743384359
 31
0.0
  0
LINE
  5
1C9
330
1F
100
AcDbEntity
  8
Sichtbare_Kanten_TC_020513_DIN_
  6
Continuous
 62
     7
100
AcDbLine
 10
235.377649445866
 20
98.53979473643446
 30
0.0
 11
235.377649445866
 21
96.1231574338436
 31
0.0
  0
LINE
  5
1CA
330
1F
100
AcDbEntity
  8
Sichtbare_Kanten_TC_020513_DIN_
  6
Continuous
 62
     7
100
AcDbLine
 10
242.7665383347571
 20
94.72315743384351
 30
0.0
 11
245.8776494458701
 21
94.72315743384351
 31
0.0
  0
LINE
  5
1CB
330
1F
100
AcDbEntity
  8
Sichtbare_Kanten_TC_020513_DIN_
  6
Continuous
 62
     7
100
AcDbLine
 10
242.7665383347571
 20
93.32315743384348
 30
0.0
 11
245.8776494458701
 21
93.32315743384348
 31
0.0
  0
LINE
  5
1CC
330
1F
100
AcDbEntity
  8
Sichtbare_Kanten_TC_020513_DIN_
  6
Continuous
 62
     7
100
AcDbLine
 10
245.8776494458701
 20
93.32315743384348
 30
0.0
 11
245.8776494458701
 21
94.72315743384351
 31
0.0
  0
LINE
  5
1CD
330
1F
100
AcDbEntity
  8
Sichtbare_Kanten_TC_020513_DIN_
  6
Continuous
 62
     7
100
AcDbLine
 10
242.7665383347571
 20
94.72315743384351
 30
0.0
 11
242.377649445868
 21
94.72315743384351
 31
0.0
  0
LINE
  5
1CE
330
1F
100
AcDbEntity
  8
Sichtbare_Kanten_TC_020513_DIN_
  6
Continuous
 62
     7
100
AcDbLine
 10
242.7665383347571
 20
93.32315743384348
 30
0.0
 11
242.377649445867
 21
93.32315743384348
 31
0.0
  0
LINE
  5
1CF
330
1F
100
AcDbEntity
  8
Sichtbare_Kanten_TC_020513_DIN_
  6
Continuous
 62
     7
100
AcDbLine
 10
242.377649445866
 20
96.12315743384349
 30
0.0
 11
242.377649445866
 21
98.53979473643446
 31
0.0
  0
LINE
  5
1D0
330
1F
100
AcDbEntity
  8
Sichtbare_Kanten_TC_020513_DIN_
  6
Continuous
 62
     7
100
AcDbLine
 10
204.577649445866
 20
105.5397947364345
 30
0.0
 11
204.577649445866
 21
92.03979473643429
 31
0.0
  0
LINE
  5
1D1
330
1F
100
AcDbEntity
  8
Sichtbare_Kanten_TC_020513_DIN_
  6
Continuous
 62
     7
100
AcDbLine
 10
234.377649445866
 20
106.5397947364345
 30
0.0
 11
221.577649445866
 21
106.5397947364345
 31
0.0
  0
LINE
  5
1D2
330
1F
100
AcDbEntity
  8
Sichtbare_Kanten_TC_020513_DIN_
  6
Continuous
 62
     7
100
AcDbLine
 10
223.577649445866
 20
99.53979473643446
 30
0.0
 11
234.377649445866
 21
99.53979473643446
 31
0.0
  0
LINE
  5
1D3
330
1F
100
AcDbEntity
  8
Sichtbare_Kanten_TC_020513_DIN_
  6
Continuous
 62
     7
100
AcDbLine
 10
235.377649445867
 20
93.32315743384359
 30
0.0
 11
235.339994530862
 21
93.32315743384359
 31
0.0
  0
LINE
  5
1D4
330
1F
100
AcDbEntity
  8
Sichtbare_Kanten_TC_020513_DIN_
  6
Continuous
 62
     7
100
AcDbLine
 10
235.3776494458701
 20
94.72315743384351
 30
0.0
 11
235.339994530862
 21
94.72315743384351
 31
0.0
  0
LINE
  5
1D5
330
1F
100
AcDbEntity
  8
Sichtbare_Kanten_TC_020513_DIN_
  6
Continuous
 62
     7
100
AcDbLine
 10
233.839994530862
 20
93.22315743384351
 30
0.0
 11
233.839994530862
 21
92.3855025188362
 31
0.0
  0
LINE
  5
1D6
330
1F
100
AcDbEntity
  8
Sichtbare_Kanten_TC_020513_DIN_
  6
Continuous
 62
     7
100
AcDbLine
 10
235.239994530862
 20
92.3855025188362
 30
0.0
 11
233.839994530862
 21
92.3855025188362
 31
0.0
  0
LINE
  5
1D7
330
1F
100
AcDbEntity
  8
Sichtbare_Kanten_TC_020513_DIN_
  6
Continuous
 62
     7
100
AcDbLine
 10
235.239994530862
 20
93.22315743384351
 30
0.0
 11
235.239994530862
 21
92.3855025188362
 31
0.0
  0
LINE
  5
1D8
330
1F
100
AcDbEntity
  8
Sichtbare_Kanten_TC_020513_DIN_
  6
Continuous
 62
     7
100
AcDbLine
 10
237.577649445864
 20
59.5397947364343
 30
0.0
 11
185.577649445864
 21
59.5397947364343
 31
0.0
  0
LINE
  5
1D9
330
1F
100
AcDbEntity
  8
Sichtbare_Kanten_TC_020513_DIN_
  6
Continuous
 62
     7
100
AcDbLine
 10
237.577649445864
 20
59.5397947364343
 30
0.0
 11
237.577649445864
 21
63.53979473643428
 31
0.0
  0
LINE
  5
1DA
330
1F
100
AcDbEntity
  8
Sichtbare_Kanten_TC_020513_DIN_
  6
Continuous
 62
     7
100
AcDbLine
 10
237.577649445864
 20
63.53979473643428
 30
0.0
 11
223.907649445864
 21
63.53979473643428
 31
0.0
  0
LINE
  5
1DB
330
1F
100
AcDbEntity
  8
Sichtbare_Kanten_TC_020513_DIN_
  6
Continuous
 62
     7
100
AcDbLine
 10
199.2476494458641
 20
63.53979473643428
 30
0.0
 11
185.577649445864
 21
63.53979473643428
 31
0.0
  0
LINE
  5
1DC
330
1F
100
AcDbEntity
  8
Sichtbare_Kanten_TC_020513_DIN_
  6
Continuous
 62
     7
100
AcDbLine
 10
185.577649445864
 20
59.5397947364343
 30
0.0
 11
185.577649445864
 21
63.53979473643428
 31
0.0
  0
LINE
  5
1DD
330
1F
100
AcDbEntity
  8
Sichtbare_Kanten_TC_020513_DIN_
  6
Continuous
 62
     7
100
AcDbLine
 10
223.907649445864
 20
76.1197947364343
 30
0.0
 11
223.907649445864
 21
63.53979473643428
 31
0.0
  0
LINE
  5
1DE
330
1F
100
AcDbEntity
  8
Sichtbare_Kanten_TC_020513_DIN_
  6
Continuous
 62
     7
100
AcDbLine
 10
199.2476494458641
 20
63.53979473643428
 30
0.0
 11
199.2476494458641
 21
76.1197947364343
 31
0.0
  0
LINE
  5
1DF
330
1F
100
AcDbEntity
  8
Sichtbare_Kanten_TC_020513_DIN_
  6
Continuous
 62
     7
100
AcDbLine
 10
233.827649445869
 20
63.53979473643428
 30
0.0
 11
233.827649445869
 21
99.53979473643446
 31
0.0
  0
LINE
  5
1E0
330
1F
100
AcDbEntity
  8
Sichtbare_Kanten_TC_020513_DIN_
  6
Continuous
 62
     7
100
AcDbLine
 10
233.827649445869
 20
106.5397947364345
 30
0.0
 11
233.827649445869
 21
108.5397947364345
 31
0.0
  0
LINE
  5
1E1
330
1F
100
AcDbEntity
  8
Sichtbare_Kanten_TC_020513_DIN_
  6
Continuous
 62
     7
100
AcDbLine
 10
189.327649445869
 20
108.5397947364345
 30
0.0
 11
195.3276494458671
 21
108.5397947364345
 31
0.0
  0
LINE
  5
1E2
330
1F
100
AcDbEntity
  8
Sichtbare_Kanten_TC_020513_DIN_
  6
Continuous
 62
     7
100
AcDbLine
 10
227.8276494458671
 20
108.5397947364345
 30
0.0
 11
220.961982637861
 21
108.5397947364345
 31
0.0
  0
LINE
  5
1E3
330
1F
100
AcDbEntity
  8
Sichtbare_Kanten_TC_020513_DIN_
  6
Continuous
 62
     7
100
AcDbLine
 10
205.2530941255311
 20
108.5397947364345
 30
0.0
 11
195.3276494458671
 21
108.5397947364345
 31
0.0
  0
LINE
  5
1E4
330
1F
100
AcDbEntity
  8
Sichtbare_Kanten_TC_020513_DIN_
  6
Continuous
 62
     7
100
AcDbLine
 10
227.8276494458671
 20
108.5397947364345
 30
0.0
 11
233.827649445869
 21
108.5397947364345
 31
0.0
  0
LINE
  5
1E5
330
1F
100
AcDbEntity
  8
Sichtbare_Kanten_TC_020513_DIN_
  6
Continuous
 62
     7
100
AcDbLine
 10
189.327649445869
 20
63.53979473643428
 30
0.0
 11
189.327649445869
 21
108.5397947364345
 31
0.0
  0
LINE
  5
1E6
330
1F
100
AcDbEntity
  8
Sichtbare_Kanten_TC_020513_DIN_
  6
Continuous
 62
     7
100
AcDbLine
 10
195.3276494458681
 20
112.5397947364345
 30
0.0
 11
189.527649445869
 21
112.5397947364345
 31
0.0
  0
LINE
  5
1E7
330
1F
100
AcDbEntity
  8
Sichtbare_Kanten_TC_020513_DIN_
  6
Continuous
 62
     7
100
AcDbLine
 10
195.3276494458681
 20
112.5397947364345
 30
0.0
 11
214.5776494458681
 21
112.5397947364345
 31
0.0
  0
LINE
  5
1E8
330
1F
100
AcDbEntity
  8
Sichtbare_Kanten_TC_020513_DIN_
  6
Continuous
 62
     7
100
AcDbLine
 10
225.714816408046
 20
112.5397947364345
 30
0.0
 11
227.8276494458681
 21
112.5397947364345
 31
0.0
  0
LINE
  5
1E9
330
1F
100
AcDbEntity
  8
Sichtbare_Kanten_TC_020513_DIN_
  6
Continuous
 62
     7
100
AcDbLine
 10
233.6276494458691
 20
112.5397947364345
 30
0.0
 11
227.8276494458681
 21
112.5397947364345
 31
0.0
  0
LINE
  5
1EA
330
1F
100
AcDbEntity
  8
Sichtbare_Kanten_TC_020513_DIN_
  6
Continuous
 62
     7
100
AcDbLine
 10
233.6276494458691
 20
112.5397947364345
 30
0.0
 11
233.6276494458691
 21
108.5397947364345
 31
0.0
  0
LINE
  5
1EB
330
1F
100
AcDbEntity
  8
Sichtbare_Kanten_TC_020513_DIN_
  6
Continuous
 62
     7
100
AcDbLine
 10
189.527649445869
 20
112.5397947364345
 30
0.0
 11
189.527649445869
 21
108.5397947364345
 31
0.0
  0
LINE
  5
1EC
330
1F
100
AcDbEntity
  8
Sichtbare_Kanten_TC_020513_DIN_
  6
Continuous
 62
     7
100
AcDbLine
 10
187.3276494458731
 20
89.03979473643429
 30
0.0
 11
187.327649445875
 21
97.03979473643446
 31
0.0
  0
LINE
  5
1ED
330
1F
100
AcDbEntity
  8
Sichtbare_Kanten_TC_020513_DIN_
  6
Continuous
 62
     7
100
AcDbLine
 10
187.3276494458731
 20
89.03979473643429
 30
0.0
 11
187.3276494458721
 21
87.03979473643429
 31
0.0
  0
LINE
  5
1EE
330
1F
100
AcDbEntity
  8
Sichtbare_Kanten_TC_020513_DIN_
  6
Continuous
 62
     7
100
AcDbLine
 10
171.8276494458721
 20
88.03979473643429
 30
0.0
 11
171.8276494458721
 21
117.5397947364345
 31
0.0
  0
LINE
  5
1EF
330
1F
100
AcDbEntity
  8
Sichtbare_Kanten_TC_020513_DIN_
  6
Continuous
 62
     7
100
AcDbLine
 10
172.8276494458721
 20
118.5397947364345
 30
0.0
 11
180.8276494458721
 21
118.5397947364345
 31
0.0
  0
LINE
  5
1F0
330
1F
100
AcDbEntity
  8
Sichtbare_Kanten_TC_020513_DIN_
  6
Continuous
 62
     7
100
AcDbLine
 10
180.8276494458721
 20
118.5397947364345
 30
0.0
 11
182.8276494458721
 21
108.0397947364345
 31
0.0
  0
LINE
  5
1F1
330
1F
100
AcDbEntity
  8
Sichtbare_Kanten_TC_020513_DIN_
  6
Continuous
 62
     7
100
AcDbLine
 10
187.3276494458721
 20
87.03979473643429
 30
0.0
 11
172.8276494458721
 21
87.03979473643429
 31
0.0
  0
LINE
  5
1F2
330
1F
100
AcDbEntity
  8
Sichtbare_Kanten_TC_020513_DIN_
  6
Continuous
 62
     7
100
AcDbLine
 10
182.8276494458721
 20
108.0397947364345
 30
0.0
 11
189.327649445875
 21
108.0397947364345
 31
0.0
  0
LINE
  5
1F3
330
1F
100
AcDbEntity
  8
Sichtbare_Kanten_TC_020513_DIN_
  6
Continuous
 62
     7
100
AcDbLine
 10
189.327649445875
 20
89.03979473643429
 30
0.0
 11
187.3276494458731
 21
89.03979473643429
 31
0.0
  0
LINE
  5
1F4
330
1F
100
AcDbEntity
  8
Sichtbare_Kanten_TC_020513_DIN_
  6
Continuous
 62
     7
100
AcDbLine
 10
187.3276494458731
 20
89.03979473643429
 30
0.0
 11
182.8276494458721
 21
89.03979473643429
 31
0.0
  0
LINE
  5
1F5
330
1F
100
AcDbEntity
  8
Sichtbare_Kanten_TC_020513_DIN_
  6
Continuous
 62
     7
100
AcDbLine
 10
182.8276494458721
 20
89.03979473643429
 30
0.0
 11
182.8276494458721
 21
108.0397947364345
 31
0.0
  0
LINE
  5
1F6
330
1F
100
AcDbEntity
  8
Sichtbare_Kanten_TC_020513_DIN_
  6
Continuous
 62
     7
100
AcDbLine
 10
239.744286748458
 20
122.9007800714295
 30
0.0
 11
239.744286748458
 21
112.9007800714295
 31
0.0
  0
LINE
  5
1F7
330
1F
100
AcDbEntity
  8
Sichtbare_Kanten_TC_020513_DIN_
  6
Continuous
 62
     7
100
AcDbLine
 10
239.744286748458
 20
112.9007800714295
 30
0.0
 11
236.9442867484571
 21
112.9007800714295
 31
0.0
  0
LINE
  5
1F8
330
1F
100
AcDbEntity
  8
Sichtbare_Kanten_TC_020513_DIN_
  6
Continuous
 62
     7
100
AcDbLine
 10
238.436785396043
 20
122.9007800714295
 30
0.0
 11
239.744286748458
 21
122.9007800714295
 31
0.0
  0
LINE
  5
1F9
330
1F
100
AcDbEntity
  8
Sichtbare_Kanten_TC_020513_DIN_
  6
Continuous
 62
     7
100
AcDbLine
 10
239.7442867484611
 20
112.7154848327045
 30
0.0
 11
239.744286748458
 21
112.9007800714295
 31
0.0
  0
LINE
  5
1FA
330
1F
100
AcDbEntity
  8
Sichtbare_Kanten_TC_020513_DIN_
  6
Continuous
 62
     7
100
AcDbLine
 10
239.7442867484611
 20
111.3406030429315
 30
0.0
 11
239.7442867484611
 21
112.7154848327045
 31
0.0
  0
LINE
  5
1FB
330
1F
100
AcDbEntity
  8
Sichtbare_Kanten_TC_020513_DIN_
  6
Continuous
 62
     7
100
AcDbLine
 10
209.977649445867
 20
95.53979473643429
 30
0.0
 11
209.977649445867
 21
95.40213982142691
 31
0.0
  0
LINE
  5
1FC
330
1F
100
AcDbEntity
  8
Sichtbare_Kanten_TC_020513_DIN_
  6
Continuous
 62
     7
100
AcDbLine
 10
210.0137901075011
 20
95.53979473643429
 30
0.0
 11
209.977649445867
 21
95.53979473643429
 31
0.0
  0
LINE
  5
1FD
330
1F
100
AcDbEntity
  8
Sichtbare_Kanten_TC_020513_DIN_
  6
Continuous
 62
     7
100
AcDbLine
 10
220.965795207586
 20
108.5833726078085
 30
0.0
 11
220.8386948522611
 21
107.1306088987375
 31
0.0
  0
LINE
  5
1FE
330
1F
100
AcDbEntity
  8
Sichtbare_Kanten_TC_020513_DIN_
  6
Continuous
 62
     7
100
AcDbLine
 10
231.2674582736741
 20
116.9319444995275
 30
0.0
 11
221.15370138444
 21
108.9319444995275
 31
0.0
  0
LINE
  5
1FF
330
1F
100
AcDbEntity
  8
Sichtbare_Kanten_TC_020513_DIN_
  6
Continuous
 62
     7
100
AcDbLine
 10
234.793349919681
 20
113.2803977270445
 30
0.0
 11
231.9697992089601
 21
116.8499859086265
 31
0.0
  0
LINE
  5
200
330
1F
100
AcDbEntity
  8
Sichtbare_Kanten_TC_020513_DIN_
  6
Continuous
 62
     7
100
AcDbLine
 10
236.9442867484571
 20
112.9007800714295
 30
0.0
 11
235.5776494458671
 21
112.9007800714295
 31
0.0
  0
LINE
  5
201
330
1F
100
AcDbEntity
  8
Sichtbare_Kanten_TC_020513_DIN_
  6
Continuous
 62
     7
100
AcDbLine
 10
233.6030949722961
 20
125.3832560052245
 30
0.0
 11
236.9442867484581
 21
123.3360363206255
 31
0.0
  0
LINE
  5
202
330
1F
100
AcDbEntity
  8
Sichtbare_Kanten_TC_020513_DIN_
  6
Continuous
 62
     7
100
AcDbLine
 10
207.317367765039
 20
130.5397947364345
 30
0.0
 11
215.317367765039
 21
130.5397947364345
 31
0.0
  0
LINE
  5
203
330
1F
100
AcDbEntity
  8
Sichtbare_Kanten_TC_020513_DIN_
  6
Continuous
 62
     7
100
AcDbLine
 10
216.864651401536
 20
117.2130050034485
 30
0.0
 11
215.799006393043
 21
120.0986871395615
 31
0.0
  0
LINE
  5
204
330
1F
100
AcDbEntity
  8
Sichtbare_Kanten_TC_020513_DIN_
  6
Continuous
 62
     7
100
AcDbLine
 10
214.5776494458671
 20
113.5397947364345
 30
0.0
 11
216.8065273822031
 21
116.7549292671325
 31
0.0
  0
LINE
  5
205
330
1F
100
AcDbEntity
  8
Sichtbare_Kanten_TC_020513_DIN_
  6
Continuous
 62
     7
100
AcDbLine
 10
214.5776494458671
 20
111.8643500567705
 30
0.0
 11
214.5776494458671
 21
113.5397947364345
 31
0.0
  0
LINE
  5
206
330
1F
100
AcDbEntity
  8
Sichtbare_Kanten_TC_020513_DIN_
  6
Continuous
 62
     7
100
AcDbLine
 10
207.0776494458671
 20
95.40213982142691
 30
0.0
 11
207.0776494458671
 21
95.44118255530029
 31
0.0
  0
LINE
  5
207
330
1F
100
AcDbEntity
  8
Sichtbare_Kanten_TC_020513_DIN_
  6
Continuous
 62
     7
100
AcDbLine
 10
238.344286748461
 20
112.7154848327045
 30
0.0
 11
238.344286748461
 21
111.3406030429315
 31
0.0
  0
LINE
  5
208
330
1F
100
AcDbEntity
  8
Sichtbare_Kanten_TC_020513_DIN_
  6
Continuous
 62
     7
100
AcDbLine
 10
238.344286748461
 20
112.9007800714295
 30
0.0
 11
238.344286748461
 21
112.7154848327045
 31
0.0
  0
LINE
  5
209
330
1F
100
AcDbEntity
  8
Sichtbare_Kanten_TC_020513_DIN_
  6
Continuous
 62
     7
100
AcDbLine
 10
246.078562141258
 20
124.1174173740205
 30
0.0
 11
247.5609240510531
 21
124.1174173740205
 31
0.0
  0
LINE
  5
20A
330
1F
100
AcDbEntity
  8
Sichtbare_Kanten_TC_020513_DIN_
  6
Continuous
 62
     7
100
AcDbLine
 10
247.5609240510531
 20
122.7174173740205
 30
0.0
 11
246.078562141258
 21
122.7174173740205
 31
0.0
  0
LINE
  5
20B
330
1F
100
AcDbEntity
  8
Sichtbare_Kanten_TC_020513_DIN_
  6
Continuous
 62
     7
100
AcDbLine
 10
247.5609240510531
 20
122.7174173740205
 30
0.0
 11
247.5609240510531
 21
124.1174173740205
 31
0.0
  0
LINE
  5
20C
330
1F
100
AcDbEntity
  8
Sichtbare_Kanten_TC_020513_DIN_
  6
Continuous
 62
     7
100
AcDbLine
 10
241.1442867484621
 20
122.7174173740205
 30
0.0
 11
246.078562141258
 21
122.7174173740205
 31
0.0
  0
LINE
  5
20D
330
1F
100
AcDbEntity
  8
Sichtbare_Kanten_TC_020513_DIN_
  6
Continuous
 62
     7
100
AcDbLine
 10
246.078562141258
 20
124.1174173740205
 30
0.0
 11
241.1442867484621
 21
124.1174173740205
 31
0.0
  0
LINE
  5
20E
330
1F
100
AcDbEntity
  8
Sichtbare_Kanten_TC_020513_DIN_
  6
Continuous
 62
     7
100
AcDbLine
 10
209.977649445866
 20
95.30213982142689
 30
0.0
 11
209.977649445866
 21
93.90213982142691
 31
0.0
  0
LINE
  5
20F
330
1F
100
AcDbEntity
  8
Sichtbare_Kanten_TC_020513_DIN_
  6
Continuous
 62
     7
100
AcDbLine
 10
209.977649445866
 20
93.90213982142691
 30
0.0
 11
209.477649445866
 21
93.90213982142691
 31
0.0
  0
LINE
  5
210
330
1F
100
AcDbEntity
  8
Sichtbare_Kanten_TC_020513_DIN_
  6
Continuous
 62
     7
100
AcDbLine
 10
209.477649445866
 20
95.30213982142689
 30
0.0
 11
209.977649445866
 21
95.30213982142689
 31
0.0
  0
LINE
  5
211
330
1F
100
AcDbEntity
  8
Sichtbare_Kanten_TC_020513_DIN_
  6
Continuous
 62
     7
100
AcDbLine
 10
207.577649445866
 20
93.90213982142691
 30
0.0
 11
209.477649445866
 21
93.90213982142691
 31
0.0
  0
LINE
  5
212
330
1F
100
AcDbEntity
  8
Sichtbare_Kanten_TC_020513_DIN_
  6
Continuous
 62
     7
100
AcDbLine
 10
209.477649445866
 20
95.30213982142689
 30
0.0
 11
207.577649445866
 21
95.30213982142689
 31
0.0
  0
LINE
  5
213
330
1F
100
AcDbEntity
  8
Sichtbare_Kanten_TC_020513_DIN_
  6
Continuous
 62
     7
100
AcDbLine
 10
207.577649445866
 20
93.90213982142691
 30
0.0
 11
207.077649445866
 21
93.90213982142691
 31
0.0
  0
LINE
  5
214
330
1F
100
AcDbEntity
  8
Sichtbare_Kanten_TC_020513_DIN_
  6
Continuous
 62
     7
100
AcDbLine
 10
207.077649445866
 20
95.30213982142689
 30
0.0
 11
207.577649445866
 21
95.30213982142689
 31
0.0
  0
LINE
  5
215
330
1F
100
AcDbEntity
  8
Sichtbare_Kanten_TC_020513_DIN_
  6
Continuous
 62
     7
100
AcDbLine
 10
207.077649445866
 20
95.30213982142689
 30
0.0
 11
207.077649445866
 21
93.90213982142691
 31
0.0
  0
LINE
  5
216
330
1F
100
AcDbEntity
  8
Sichtbare_Kanten_TC_020513_DIN_
  6
Continuous
 62
     7
100
AcDbLine
 10
241.801693818995
 20
103.3054245977555
 30
0.0
 11
241.1752206054071
 21
104.6489007398085
 31
0.0
  0
LINE
  5
217
330
1F
100
AcDbEntity
  8
Sichtbare_Kanten_TC_020513_DIN_
  6
Continuous
 62
     7
100
AcDbLine
 10
243.070524720847
 20
103.8970901641925
 30
0.0
 11
241.801693818995
 21
103.3054245977555
 31
0.0
  0
LINE
  5
218
330
1F
100
AcDbEntity
  8
Sichtbare_Kanten_TC_020513_DIN_
  6
Continuous
 62
     7
100
AcDbLine
 10
242.4440515072581
 20
105.2405663062455
 30
0.0
 11
243.070524720847
 21
103.8970901641925
 31
0.0
  0
LINE
  5
219
330
1F
100
AcDbEntity
  8
Sichtbare_Kanten_TC_020513_DIN_
  6
Continuous
 62
     7
100
AcDbLine
 10
238.6066249447591
 20
110.1572719100585
 30
0.0
 11
241.1752206054071
 21
104.6489007398085
 31
0.0
  0
LINE
  5
21A
330
1F
100
AcDbEntity
  8
Sichtbare_Kanten_TC_020513_DIN_
  6
Continuous
 62
     7
100
AcDbLine
 10
242.4440515072581
 20
105.2405663062455
 30
0.0
 11
239.87545584661
 21
110.7489374764945
 31
0.0
  0
LINE
  5
21B
330
1F
100
AcDbEntity
  8
Sichtbare_Kanten_TC_020513_DIN_
  6
Continuous
 62
     7
100
AcDbLine
 10
239.317166757852
 20
110.4886029989425
 30
0.0
 11
238.6066249447591
 21
110.1572719100585
 31
0.0
  0
LINE
  5
21C
330
1F
100
AcDbEntity
  8
Sichtbare_Kanten_TC_020513_DIN_
  6
Continuous
 62
     7
100
AcDbLine
 10
239.87545584661
 20
110.7489374764945
 30
0.0
 11
239.317166757852
 21
110.4886029989425
 31
0.0
  0
LINE
  5
21D
330
1F
100
AcDbEntity
  8
Sichtbare_Kanten_TC_020513_DIN_
  6
Continuous
 62
     7
100
AcDbLine
 10
239.1282828955251
 20
111.3406030429315
 30
0.0
 11
239.7442867484611
 21
111.3406030429315
 31
0.0
  0
LINE
  5
21E
330
1F
100
AcDbEntity
  8
Sichtbare_Kanten_TC_020513_DIN_
  6
Continuous
 62
     7
100
AcDbLine
 10
238.344286748461
 20
111.3406030429315
 30
0.0
 11
239.1282828955251
 21
111.3406030429315
 31
0.0
  0
LINE
  5
21F
330
1F
100
AcDbEntity
  8
Sichtbare_Kanten_TC_020513_DIN_
  6
Continuous
 62
     7
100
AcDbLine
 10
207.0776494458671
 20
95.40213982142691
 30
0.0
 11
207.077649445866
 21
95.30213982142689
 31
0.0
  0
LINE
  5
220
330
1F
100
AcDbEntity
  8
Sichtbare_Kanten_TC_020513_DIN_
  6
Continuous
 62
     7
100
AcDbLine
 10
209.977649445866
 20
95.30213982142689
 30
0.0
 11
209.977649445867
 21
95.40213982142691
 31
0.0
  0
LINE
  5
221
330
1F
100
AcDbEntity
  8
Sichtbare_Kanten_TC_020513_DIN_
  6
Continuous
 62
     7
100
AcDbLine
 10
241.1442867484621
 20
123.3334185043015
 30
0.0
 11
241.1442867484621
 21
122.7174173740205
 31
0.0
  0
LINE
  5
222
330
1F
100
AcDbEntity
  8
Sichtbare_Kanten_TC_020513_DIN_
  6
Continuous
 62
     7
100
AcDbLine
 10
241.1442867484621
 20
124.1174173740205
 30
0.0
 11
241.1442867484621
 21
123.3334185043015
 31
0.0
  0
LINE
  5
223
330
1F
100
AcDbEntity
  8
Sichtbare_Kanten_TC_020513_DIN_
  6
Continuous
 62
     7
100
AcDbLine
 10
164.3276494458681
 20
152.0397947364345
 30
0.0
 11
164.3276494458681
 21
135.0397947364345
 31
0.0
  0
LINE
  5
224
330
1F
100
AcDbEntity
  8
Sichtbare_Kanten_TC_020513_DIN_
  6
Continuous
 62
     7
100
AcDbLine
 10
164.3276494458681
 20
169.0397947364345
 30
0.0
 11
164.327649445869
 21
171.0397947364345
 31
0.0
  0
LINE
  5
225
330
1F
100
AcDbEntity
  8
Sichtbare_Kanten_TC_020513_DIN_
  6
Continuous
 62
     7
100
AcDbLine
 10
164.3276494458681
 20
169.0397947364345
 30
0.0
 11
164.3276494458681
 21
152.0397947364345
 31
0.0
  0
LINE
  5
226
330
1F
100
AcDbEntity
  8
Sichtbare_Kanten_TC_020513_DIN_
  6
Continuous
 62
     7
100
AcDbLine
 10
164.327649445869
 20
133.0397947364345
 30
0.0
 11
164.3276494458681
 21
135.0397947364345
 31
0.0
  0
LINE
  5
227
330
1F
100
AcDbEntity
  8
Sichtbare_Kanten_TC_020513_DIN_
  6
Continuous
 62
     7
100
AcDbLine
 10
175.8276494458731
 20
177.0397947364345
 30
0.0
 11
175.8276494458731
 21
175.0397947364345
 31
0.0
  0
LINE
  5
228
330
1F
100
AcDbEntity
  8
Sichtbare_Kanten_TC_020513_DIN_
  6
Continuous
 62
     7
100
AcDbLine
 10
175.8276494458731
 20
177.0397947364345
 30
0.0
 11
172.8276494458731
 21
177.0397947364345
 31
0.0
  0
LINE
  5
229
330
1F
100
AcDbEntity
  8
Sichtbare_Kanten_TC_020513_DIN_
  6
Continuous
 62
     7
100
AcDbLine
 10
172.8276494458731
 20
177.0397947364345
 30
0.0
 11
172.8276494458731
 21
172.0397947364345
 31
0.0
  0
LINE
  5
22A
330
1F
100
AcDbEntity
  8
Sichtbare_Kanten_TC_020513_DIN_
  6
Continuous
 62
     7
100
AcDbLine
 10
173.827649445869
 20
132.0397947364345
 30
0.0
 11
165.327649445869
 21
132.0397947364345
 31
0.0
  0
LINE
  5
22B
330
1F
100
AcDbEntity
  8
Sichtbare_Kanten_TC_020513_DIN_
  6
Continuous
 62
     7
100
AcDbLine
 10
173.827649445869
 20
172.0397947364345
 30
0.0
 11
165.327649445869
 21
172.0397947364345
 31
0.0
  0
LINE
  5
22C
330
1F
100
AcDbEntity
  8
Sichtbare_Kanten_TC_020513_DIN_
  6
Continuous
 62
     7
100
AcDbLine
 10
177.827649445869
 20
175.0397947364345
 30
0.0
 11
173.827649445869
 21
175.0397947364345
 31
0.0
  0
LINE
  5
22D
330
1F
100
AcDbEntity
  8
Sichtbare_Kanten_TC_020513_DIN_
  6
Continuous
 62
     7
100
AcDbLine
 10
173.827649445869
 20
129.0397947364345
 30
0.0
 11
173.8276494458671
 21
135.0397947364345
 31
0.0
  0
LINE
  5
22E
330
1F
100
AcDbEntity
  8
Sichtbare_Kanten_TC_020513_DIN_
  6
Continuous
 62
     7
100
AcDbLine
 10
173.8276494458671
 20
169.0397947364345
 30
0.0
 11
173.8276494458671
 21
135.0397947364345
 31
0.0
  0
LINE
  5
22F
330
1F
100
AcDbEntity
  8
Sichtbare_Kanten_TC_020513_DIN_
  6
Continuous
 62
     7
100
AcDbLine
 10
173.8276494458671
 20
169.0397947364345
 30
0.0
 11
173.827649445869
 21
175.0397947364345
 31
0.0
  0
LINE
  5
230
330
1F
100
AcDbEntity
  8
Sichtbare_Kanten_TC_020513_DIN_
  6
Continuous
 62
     7
100
AcDbLine
 10
177.827649445869
 20
175.0397947364345
 30
0.0
 11
177.8276494458671
 21
169.0397947364345
 31
0.0
  0
LINE
  5
231
330
1F
100
AcDbEntity
  8
Sichtbare_Kanten_TC_020513_DIN_
  6
Continuous
 62
     7
100
AcDbLine
 10
177.8276494458671
 20
135.0397947364345
 30
0.0
 11
177.8276494458671
 21
169.0397947364345
 31
0.0
  0
LINE
  5
232
330
1F
100
AcDbEntity
  8
Sichtbare_Kanten_TC_020513_DIN_
  6
Continuous
 62
     7
100
AcDbLine
 10
177.827649445869
 20
129.0397947364345
 30
0.0
 11
173.827649445869
 21
129.0397947364345
 31
0.0
  0
LINE
  5
233
330
1F
100
AcDbEntity
  8
Sichtbare_Kanten_TC_020513_DIN_
  6
Continuous
 62
     7
100
AcDbLine
 10
177.8276494458671
 20
135.0397947364345
 30
0.0
 11
177.827649445869
 21
129.0397947364345
 31
0.0
  0
LINE
  5
234
330
1F
100
AcDbEntity
  8
Sichtbare_Kanten_TC_020513_DIN_
  6
Continuous
 62
     7
100
AcDbLine
 10
175.327649445874
 20
129.0397947364345
 30
0.0
 11
175.327649445874
 21
119.8309049914955
 31
0.0
  0
LINE
  5
235
330
1F
100
AcDbEntity
  8
Sichtbare_Kanten_TC_020513_DIN_
  6
Continuous
 62
     7
100
AcDbLine
 10
164.787243763578
 20
132.1983901378355
 30
0.0
 11
169.8586047960001
 21
112.2929092031395
 31
0.0
  0
LINE
  5
236
330
1F
100
AcDbEntity
  8
Sichtbare_Kanten_TC_020513_DIN_
  6
Continuous
 62
     7
100
AcDbLine
 10
179.388584117576
 20
120.3397947364345
 30
0.0
 11
175.327649445874
 21
120.8384148169545
 31
0.0
  0
LINE
  5
237
330
1F
100
AcDbEntity
  8
Sichtbare_Kanten_TC_020513_DIN_
  6
Continuous
 62
     7
100
AcDbLine
 10
179.827649445874
 20
118.5397947364345
 30
0.0
 11
179.827649445874
 21
119.8435216606135
 31
0.0
  0
LINE
  5
238
330
1F
100
AcDbEntity
  8
Sichtbare_Kanten_TC_020513_DIN_
  6
Continuous
 62
     7
100
AcDbLine
 10
170.827649445874
 20
111.5397947364345
 30
0.0
 11
171.827649445874
 21
111.5397947364345
 31
0.0
  0
LINE
  5
239
330
1F
100
AcDbEntity
  8
Mittelpunktmarkierung_TC_020513_DIN_
  6
CHAIN
 62
     7
100
AcDbLine
 10
225.8196494458851
 20
76.1197947364343
 30
0.0
 11
197.3356494458851
 21
76.1197947364343
 31
0.0
  0
LINE
  5
23A
330
1F
100
AcDbEntity
  8
Mittelpunktmarkierung_TC_020513_DIN_
  6
CHAIN
 62
     7
100
AcDbLine
 10
211.577649445884
 20
90.36179473643429
 30
0.0
 11
211.577649445884
 21
61.8777947364343
 31
0.0
  0
LINE
  5
23B
330
1F
100
AcDbEntity
  8
Mittelpunktmarkierung_TC_020513_DIN_
  6
CHAIN
 62
     7
100
AcDbLine
 10
212.827649445866
 20
94.53979473643429
 30
0.0
 11
204.327649445866
 21
94.53979473643429
 31
0.0
  0
LINE
  5
23C
330
1F
100
AcDbEntity
  8
Mittelpunktmarkierung_TC_020513_DIN_
  6
CHAIN
 62
     7
100
AcDbLine
 10
208.577649445866
 20
98.78979473643446
 30
0.0
 11
208.577649445866
 21
90.28979473643429
 31
0.0
  0
LINE
  5
23D
330
1F
100
AcDbEntity
  8
Mittelpunktmarkierung_TC_020513_DIN_
  6
CHAIN
 62
     7
100
AcDbLine
 10
218.7776494458661
 20
105.5397947364345
 30
0.0
 11
204.377649445866
 21
105.5397947364345
 31
0.0
  0
LINE
  5
23E
330
1F
100
AcDbEntity
  8
Mittelpunktmarkierung_TC_020513_DIN_
  6
CHAIN
 62
     7
100
AcDbLine
 10
211.577649445866
 20
112.7397947364345
 30
0.0
 11
211.577649445866
 21
98.33979473643447
 31
0.0
  0
LINE
  5
23F
330
1F
100
AcDbEntity
  8
Mittelpunktmarkierung_TC_020513_DIN_
  6
CHAIN
 62
     7
100
AcDbLine
 10
175.827649445866
 20
152.0397947364345
 30
0.0
 11
161.827649445866
 21
152.0397947364345
 31
0.0
  0
LINE
  5
240
330
1F
100
AcDbEntity
  8
Mittelpunktmarkierung_TC_020513_DIN_
  6
CHAIN
 62
     7
100
AcDbLine
 10
168.827649445866
 20
159.0397947364345
 30
0.0
 11
168.827649445866
 21
145.0397947364345
 31
0.0
  0
LINE
  5
241
330
1F
100
AcDbEntity
  8
Mittelpunktmarkierung_TC_020513_DIN_
  6
CHAIN
 62
     7
100
AcDbLine
 10
175.8276494458731
 20
115.5397947364345
 30
0.0
 11
171.3276494458731
 21
115.5397947364345
 31
0.0
  0
LINE
  5
242
330
1F
100
AcDbEntity
  8
Mittelpunktmarkierung_TC_020513_DIN_
  6
CHAIN
 62
     7
100
AcDbLine
 10
175.8276494458731
 20
120.0397947364345
 30
0.0
 11
175.8276494458731
 21
111.0397947364345
 31
0.0
  0
LINE
  5
243
330
1F
100
AcDbEntity
  8
Mittellinie_TC_020513_DIN_
  6
CHAIN
 62
     7
100
AcDbLine
 10
231.577649445866
 20
57.0397947364343
 30
0.0
 11
231.577649445866
 21
66.03979473643429
 31
0.0
  0
LINE
  5
244
330
1F
100
AcDbEntity
  8
Mittellinie_TC_020513_DIN_
  6
CHAIN
 62
     7
100
AcDbLine
 10
191.577649445866
 20
57.0397947364343
 30
0.0
 11
191.577649445866
 21
66.03979473643429
 31
0.0
  0
LINE
  5
245
330
1F
100
AcDbEntity
  8
Mittellinie_TC_020513_DIN_
  6
CHAIN
 62
     7
100
AcDbLine
 10
125.7311830254901
 20
57.0397947364343
 30
0.0
 11
125.7311830254901
 21
66.03979473643429
 31
0.0
  0
LINE
  5
246
330
1F
100
AcDbEntity
  8
Mittellinie_TC_020513_DIN_
  6
CHAIN
 62
     7
100
AcDbLine
 10
116.2311830254901
 20
76.1197947364343
 30
0.0
 11
134.2311830254901
 21
76.1197947364343
 31
0.0
  0
LINE
  5
247
330
1F
100
AcDbEntity
  8
Mittellinie_TC_020513_DIN_
  6
CHAIN
 62
     7
100
AcDbLine
 10
55.73118302549034
 20
57.0397947364343
 30
0.0
 11
55.73118302549034
 21
66.03979473643429
 31
0.0
  0
LINE
  5
248
330
1F
100
AcDbEntity
  8
Mittellinie_TC_020513_DIN_
  6
CHAIN
 62
     7
100
AcDbLine
 10
47.23118302549034
 20
76.1197947364343
 30
0.0
 11
65.23118302549034
 21
76.1197947364343
 31
0.0
  0
LINE
  5
249
330
1F
100
AcDbEntity
  8
Mittellinie_TC_020513_DIN_
  6
CHAIN
 62
     7
100
AcDbLine
 10
53.63118302549032
 20
105.5397947364345
 30
0.0
 11
59.23118302549034
 21
105.5397947364345
 31
0.0
  0
LINE
  5
24A
330
1F
100
AcDbEntity
  8
Mittellinie_TC_020513_DIN_
  6
CHAIN
 62
     7
100
AcDbLine
 10
55.63118302549032
 20
105.5397947364345
 30
0.0
 11
63.89118302549036
 21
105.5397947364345
 31
0.0
  0
LINE
  5
24B
330
1F
100
AcDbEntity
  8
Mittellinie_TC_020513_DIN_
  6
CHAIN
 62
     7
100
AcDbLine
 10
117.57118302549
 20
105.5397947364345
 30
0.0
 11
125.83118302549
 21
105.5397947364345
 31
0.0
  0
LINE
  5
24C
330
1F
100
AcDbEntity
  8
Mittellinie_TC_020513_DIN_
  6
CHAIN
 62
     7
100
AcDbLine
 10
122.2311830254901
 20
105.5397947364345
 30
0.0
 11
127.83118302549
 21
105.5397947364345
 31
0.0
  0
LINE
  5
24D
330
1F
100
AcDbEntity
  8
Mittellinie_TC_020513_DIN_
  6
CHAIN
 62
     7
100
AcDbLine
 10
90.73118302549005
 20
55.71909258813229
 30
0.0
 11
90.73118302549005
 21
179.1670652514515
 31
0.0
  0
LINE
  5
24E
330
1F
100
AcDbEntity
  8
Mittellinie_TC_020513_DIN_
  6
CHAIN
 62
     7
100
AcDbLine
 10
65.48118302549034
 20
152.0397947364345
 30
0.0
 11
52.48118302549034
 21
152.0397947364345
 31
0.0
  0
LINE
  5
24F
330
1F
100
AcDbEntity
  8
Mittellinie_TC_020513_DIN_
  6
CHAIN
 62
     7
100
AcDbLine
 10
128.9811830254901
 20
152.0397947364345
 30
0.0
 11
115.9811830254901
 21
152.0397947364345
 31
0.0
  0
ARC
  5
508
330
1F
100
AcDbEntity
  8
Sichtbare_Kanten_TC_020513_DIN_
  6
Continuous
 62
     7
100
AcDbCircle
 10
80.44782032808104
 20
92.8855025188362
 30
0.0
 40
0.5
100
AcDbArc
 50
270.0
 51
0.0
  0
ARC
  5
509
330
1F
100
AcDbEntity
  8
Sichtbare_Kanten_TC_020513_DIN_
  6
Continuous
 62
     7
100
AcDbCircle
 10
59.53118302549035
 20
96.1231574338436
 30
0.0
 40
1.400000000000027
100
AcDbArc
 50
180.0
 51
270.0
  0
ARC
  5
50A
330
1F
100
AcDbEntity
  8
Sichtbare_Kanten_TC_020513_DIN_
  6
Continuous
 62
     7
100
AcDbCircle
 10
59.53118302549035
 20
96.1231574338436
 30
0.0
 40
2.800000000000011
100
AcDbArc
 50
180.0
 51
270.0
  0
ARC
  5
50B
330
1F
100
AcDbEntity
  8
Sichtbare_Kanten_TC_020513_DIN_
  6
Continuous
 62
     7
100
AcDbCircle
 10
101.0145457229
 20
92.88550251883609
 30
0.0
 40
0.5
100
AcDbArc
 50
180.0
 51
270.0
  0
ARC
  5
50C
330
1F
100
AcDbEntity
  8
Sichtbare_Kanten_TC_020513_DIN_
  6
Continuous
 62
     7
100
AcDbCircle
 10
121.93118302549
 20
96.1231574338436
 30
0.0
 40
2.800000000000125
100
AcDbArc
 50
270.0
 51
0.0
  0
ARC
  5
50D
330
1F
100
AcDbEntity
  8
Sichtbare_Kanten_TC_020513_DIN_
  6
Continuous
 62
     7
100
AcDbCircle
 10
121.93118302549
 20
96.1231574338436
 30
0.0
 40
1.400000000000091
100
AcDbArc
 50
270.0
 51
0.0
  0
ARC
  5
50E
330
1F
100
AcDbEntity
  8
Sichtbare_Kanten_TC_020513_DIN_
  6
Continuous
 62
     7
100
AcDbCircle
 10
126.0311830254901
 20
101.5397947364345
 30
0.0
 40
0.7000000000000881
100
AcDbArc
 50
180.0
 51
0.0
  0
ARC
  5
50F
330
1F
100
AcDbEntity
  8
Sichtbare_Kanten_TC_020513_DIN_
  6
Continuous
 62
     7
100
AcDbCircle
 10
126.0311830254901
 20
109.5397947364345
 30
0.0
 40
0.7000000000000028
100
AcDbArc
 50
0.0
 51
180.0
  0
ARC
  5
510
330
1F
100
AcDbEntity
  8
Sichtbare_Kanten_TC_020513_DIN_
  6
Continuous
 62
     7
100
AcDbCircle
 10
55.43118302549033
 20
109.5397947364345
 30
0.0
 40
0.6999999999999318
100
AcDbArc
 50
0.0
 51
180.0
  0
ARC
  5
511
330
1F
100
AcDbEntity
  8
Sichtbare_Kanten_TC_020513_DIN_
  6
Continuous
 62
     7
100
AcDbCircle
 10
55.43118302549033
 20
101.5397947364345
 30
0.0
 40
0.6999999999999886
100
AcDbArc
 50
180.0
 51
0.0
  0
ARC
  5
512
330
1F
100
AcDbEntity
  8
Sichtbare_Kanten_TC_020513_DIN_
  6
Continuous
 62
     7
100
AcDbCircle
 10
93.73118302549005
 20
116.0397947364345
 30
0.0
 40
0.25
100
AcDbArc
 50
270.0
 51
90.0
  0
ARC
  5
513
330
1F
100
AcDbEntity
  8
Sichtbare_Kanten_TC_020513_DIN_
  6
Continuous
 62
     7
100
AcDbCircle
 10
93.73118302549005
 20
114.8864292183465
 30
0.0
 40
0.2500000000010527
100
AcDbArc
 50
299.9816393688731
 51
119.9816393687872
  0
ARC
  5
514
330
1F
100
AcDbEntity
  8
Sichtbare_Kanten_TC_020513_DIN_
  6
Continuous
 62
     7
100
AcDbCircle
 10
92.73118302549005
 20
114.3095061414225
 30
0.0
 40
0.25
100
AcDbArc
 50
180.0
 51
299.9816393689887
  0
ARC
  5
515
330
1F
100
AcDbEntity
  8
Sichtbare_Kanten_TC_020513_DIN_
  6
Continuous
 62
     7
100
AcDbCircle
 10
93.73118302549005
 20
117.1931602545225
 30
0.0
 40
0.2499999999996674
100
AcDbArc
 50
240.0183606312145
 51
60.01836063101135
  0
ARC
  5
516
330
1F
100
AcDbEntity
  8
Sichtbare_Kanten_TC_020513_DIN_
  6
Continuous
 62
     7
100
AcDbCircle
 10
92.73118302549005
 20
117.7700833314455
 30
0.0
 40
0.2500000000001787
100
AcDbArc
 50
60.01836063101135
 51
180.0
  0
ARC
  5
517
330
1F
100
AcDbEntity
  8
Sichtbare_Kanten_TC_020513_DIN_
  6
Continuous
 62
     7
100
AcDbCircle
 10
87.68118302549033
 20
114.9152753721925
 30
0.0
 40
0.25
100
AcDbArc
 50
180.0
 51
0.0
  0
ARC
  5
518
330
1F
100
AcDbEntity
  8
Sichtbare_Kanten_TC_020513_DIN_
  6
Continuous
 62
     7
100
AcDbCircle
 10
87.68118302549033
 20
117.1643141006765
 30
0.0
 40
0.25
100
AcDbArc
 50
0.0
 51
180.0
  0
ARC
  5
519
330
1F
100
AcDbEntity
  8
Sichtbare_Kanten_TC_020513_DIN_
  6
Continuous
 62
     7
100
AcDbCircle
 10
90.73118302549005
 20
113.1556599875765
 30
0.0
 40
0.2499999999996674
100
AcDbArc
 50
240.0183606312145
 51
60.01836063101135
  0
ARC
  5
51A
330
1F
100
AcDbEntity
  8
Sichtbare_Kanten_TC_020513_DIN_
  6
Continuous
 62
     7
100
AcDbCircle
 10
88.68118302549004
 20
114.3383522952695
 30
0.0
 40
0.2499999999997726
100
AcDbArc
 50
180.0
 51
240.0183606311919
  0
ARC
  5
51B
330
1F
100
AcDbEntity
  8
Sichtbare_Kanten_TC_020513_DIN_
  6
Continuous
 62
     7
100
AcDbCircle
 10
88.68118302549004
 20
117.7412371775995
 30
0.0
 40
0.25
100
AcDbArc
 50
0.0
 51
180.0
  0
ARC
  5
51C
330
1F
100
AcDbEntity
  8
Sichtbare_Kanten_TC_020513_DIN_
  6
Continuous
 62
     7
100
AcDbCircle
 10
91.73118302549005
 20
118.3470064083685
 30
0.0
 40
0.25
100
AcDbArc
 50
0.0
 51
144.0904238228777
  0
ARC
  5
51D
330
1F
100
AcDbEntity
  8
Sichtbare_Kanten_TC_020513_DIN_
  6
Continuous
 62
     7
100
AcDbCircle
 10
91.73118302549005
 20
113.7325830644995
 30
0.0
 40
0.25
100
AcDbArc
 50
180.0
 51
0.0
  0
ARC
  5
51E
330
1F
100
AcDbEntity
  8
Sichtbare_Kanten_TC_020513_DIN_
  6
Continuous
 62
     7
100
AcDbCircle
 10
89.73118302549005
 20
118.3470064083685
 30
0.0
 40
0.2500000000002436
100
AcDbArc
 50
35.90957617712228
 51
180.0
  0
ARC
  5
51F
330
1F
100
AcDbEntity
  8
Sichtbare_Kanten_TC_020513_DIN_
  6
Continuous
 62
     7
100
AcDbCircle
 10
89.73118302549005
 20
114.9152753721925
 30
0.0
 40
0.25
100
AcDbArc
 50
180.0
 51
0.0
  0
ARC
  5
520
330
1F
100
AcDbEntity
  8
Sichtbare_Kanten_TC_020513_DIN_
  6
Continuous
 62
     7
100
AcDbCircle
 10
110.4645457229
 20
112.6507800714295
 30
0.0
 40
0.25
100
AcDbArc
 50
90.00000000020518
 51
165.0000000001748
  0
ARC
  5
521
330
1F
100
AcDbEntity
  8
Sichtbare_Kanten_TC_020513_DIN_
  6
Continuous
 62
     7
100
AcDbCircle
 10
117.9645457229
 20
121.9007800714295
 30
0.0
 40
1.0
100
AcDbArc
 50
90.0
 51
140.0000000000204
  0
ARC
  5
522
330
1F
100
AcDbEntity
  8
Sichtbare_Kanten_TC_020513_DIN_
  6
Continuous
 62
     7
100
AcDbCircle
 10
115.353731144235
 20
121.9007800714295
 30
0.0
 40
1.0
100
AcDbArc
 50
270.0
 51
319.999999999981
  0
ARC
  5
523
330
1F
100
AcDbEntity
  8
Sichtbare_Kanten_TC_020513_DIN_
  6
Continuous
 62
     7
100
AcDbCircle
 10
110.4645457229
 20
122.4007800714295
 30
0.0
 40
1.500000000000016
100
AcDbArc
 50
226.2398789709679
 51
270.0
  0
ARC
  5
524
330
1F
100
AcDbEntity
  8
Sichtbare_Kanten_TC_020513_DIN_
  6
Continuous
 62
     7
100
AcDbCircle
 10
70.99782032808105
 20
122.4007800714295
 30
0.0
 40
1.5
100
AcDbArc
 50
270.0
 51
313.7601210290242
  0
ARC
  5
525
330
1F
100
AcDbEntity
  8
Sichtbare_Kanten_TC_020513_DIN_
  6
Continuous
 62
     7
100
AcDbCircle
 10
66.10863490674564
 20
121.9007800714295
 30
0.0
 40
1.000000000000285
100
AcDbArc
 50
220.00000000002
 51
270.0
  0
ARC
  5
526
330
1F
100
AcDbEntity
  8
Sichtbare_Kanten_TC_020513_DIN_
  6
Continuous
 62
     7
100
AcDbCircle
 10
63.49782032808105
 20
121.9007800714295
 30
0.0
 40
0.9999999999996987
100
AcDbArc
 50
39.99999999997492
 51
90.0
  0
ARC
  5
527
330
1F
100
AcDbEntity
  8
Sichtbare_Kanten_TC_020513_DIN_
  6
Continuous
 62
     7
100
AcDbCircle
 10
70.99782032808105
 20
112.6507800714295
 30
0.0
 40
0.2499999999999007
100
AcDbArc
 50
14.99999999985895
 51
90.0
  0
ARC
  5
528
330
1F
100
AcDbEntity
  8
Sichtbare_Kanten_TC_020513_DIN_
  6
Continuous
 62
     7
100
AcDbCircle
 10
58.63118302549032
 20
95.40213982142691
 30
0.0
 40
0.1000000000000227
100
AcDbArc
 50
270.0
 51
0.0
  0
ARC
  5
529
330
1F
100
AcDbEntity
  8
Sichtbare_Kanten_TC_020513_DIN_
  6
Continuous
 62
     7
100
AcDbCircle
 10
58.63118302549032
 20
95.40213982142691
 30
0.0
 40
1.500000000000041
100
AcDbArc
 50
333.0858507981367
 51
0.0
  0
ARC
  5
52A
330
1F
100
AcDbEntity
  8
Sichtbare_Kanten_TC_020513_DIN_
  6
Continuous
 62
     7
100
AcDbCircle
 10
122.83118302549
 20
95.40213982142691
 30
0.0
 40
0.0999999999999091
100
AcDbArc
 50
180.0
 51
270.0
  0
ARC
  5
52B
330
1F
100
AcDbEntity
  8
Sichtbare_Kanten_TC_020513_DIN_
  6
Continuous
 62
     7
100
AcDbCircle
 10
122.83118302549
 20
95.40213982142691
 30
0.0
 40
1.5
100
AcDbArc
 50
180.0
 51
206.9141492018656
  0
ARC
  5
52C
330
1F
100
AcDbEntity
  8
Sichtbare_Kanten_TC_020513_DIN_
  6
Continuous
 62
     7
100
AcDbCircle
 10
115.4811830254901
 20
135.0397947364345
 30
0.0
 40
1.0
100
AcDbArc
 50
270.0
 51
0.0
  0
ARC
  5
52D
330
1F
100
AcDbEntity
  8
Sichtbare_Kanten_TC_020513_DIN_
  6
Continuous
 62
     7
100
AcDbCircle
 10
65.98118302549034
 20
135.0397947364345
 30
0.0
 40
1.0
100
AcDbArc
 50
180.0
 51
270.0
  0
ARC
  5
52E
330
1F
100
AcDbEntity
  8
Sichtbare_Kanten_TC_020513_DIN_
  6
Continuous
 62
     7
100
AcDbCircle
 10
65.98118302549034
 20
169.0397947364345
 30
0.0
 40
1.0
100
AcDbArc
 50
90.0
 51
180.0
  0
ARC
  5
52F
330
1F
100
AcDbEntity
  8
Sichtbare_Kanten_TC_020513_DIN_
  6
Continuous
 62
     7
100
AcDbCircle
 10
115.4811830254901
 20
169.0397947364345
 30
0.0
 40
1.0
100
AcDbArc
 50
0.0
 51
90.0
  0
ARC
  5
530
330
1F
100
AcDbEntity
  8
Sichtbare_Kanten_TC_020513_DIN_
  6
Continuous
 62
     7
100
AcDbCircle
 10
115.4811830254901
 20
169.0397947364345
 30
0.0
 40
5.0
100
AcDbArc
 50
0.0
 51
90.0
  0
ARC
  5
531
330
1F
100
AcDbEntity
  8
Sichtbare_Kanten_TC_020513_DIN_
  6
Continuous
 62
     7
100
AcDbCircle
 10
115.4811830254901
 20
135.0397947364345
 30
0.0
 40
5.0
100
AcDbArc
 50
270.0
 51
0.0
  0
ARC
  5
532
330
1F
100
AcDbEntity
  8
Sichtbare_Kanten_TC_020513_DIN_
  6
Continuous
 62
     7
100
AcDbCircle
 10
65.98118302549034
 20
169.0397947364345
 30
0.0
 40
6.0
100
AcDbArc
 50
90.0
 51
180.0
  0
ARC
  5
533
330
1F
100
AcDbEntity
  8
Sichtbare_Kanten_TC_020513_DIN_
  6
Continuous
 62
     7
100
AcDbCircle
 10
65.98118302549034
 20
135.0397947364345
 30
0.0
 40
6.0
100
AcDbArc
 50
180.0
 51
270.0
  0
ARC
  5
534
330
1F
100
AcDbEntity
  8
Sichtbare_Kanten_TC_020513_DIN_
  6
Continuous
 62
     7
100
AcDbCircle
 10
65.98118302549034
 20
169.0397947364345
 30
0.0
 40
5.0
100
AcDbArc
 50
90.0
 51
180.0
  0
ARC
  5
535
330
1F
100
AcDbEntity
  8
Sichtbare_Kanten_TC_020513_DIN_
  6
Continuous
 62
     7
100
AcDbCircle
 10
65.98118302549034
 20
135.0397947364345
 30
0.0
 40
5.0
100
AcDbArc
 50
180.0
 51
270.0
  0
ARC
  5
536
330
1F
100
AcDbEntity
  8
Sichtbare_Kanten_TC_020513_DIN_
  6
Continuous
 62
     7
100
AcDbCircle
 10
115.4811830254901
 20
135.0397947364345
 30
0.0
 40
6.0
100
AcDbArc
 50
270.0
 51
0.0
  0
ARC
  5
537
330
1F
100
AcDbEntity
  8
Sichtbare_Kanten_TC_020513_DIN_
  6
Continuous
 62
     7
100
AcDbCircle
 10
115.4811830254901
 20
169.0397947364345
 30
0.0
 40
6.0
100
AcDbArc
 50
0.0
 51
90.0
  0
ARC
  5
538
330
1F
100
AcDbEntity
  8
Sichtbare_Kanten_TC_020513_DIN_
  6
Continuous
 62
     7
100
AcDbCircle
 10
211.577649445866
 20
105.5397947364345
 30
0.0
 40
7.000000000000198
100
AcDbArc
 50
64.00779443620527
 51
180.0
  0
ARC
  5
539
330
1F
100
AcDbEntity
  8
Sichtbare_Kanten_TC_020513_DIN_
  6
Continuous
 62
     7
100
AcDbCircle
 10
205.880414108935
 20
93.85469698264481
 30
0.0
 40
19.99999999999914
100
AcDbArc
 50
40.02901817645323
 51
64.0077944362092
  0
ARC
  5
53A
330
1F
100
AcDbEntity
  8
Sichtbare_Kanten_TC_020513_DIN_
  6
Continuous
 62
     7
100
AcDbCircle
 10
221.577649445866
 20
107.0397947364345
 30
0.0
 40
0.5000000000004895
100
AcDbArc
 50
220.0290181764915
 51
270.0
  0
ARC
  5
53B
330
1F
100
AcDbEntity
  8
Sichtbare_Kanten_TC_020513_DIN_
  6
Continuous
 62
     7
100
AcDbCircle
 10
234.377649445866
 20
98.53979473643446
 30
0.0
 40
8.0
100
AcDbArc
 50
0.0
 51
90.0
  0
ARC
  5
53C
330
1F
100
AcDbEntity
  8
Sichtbare_Kanten_TC_020513_DIN_
  6
Continuous
 62
     7
100
AcDbCircle
 10
234.377649445866
 20
98.53979473643446
 30
0.0
 40
1.0
100
AcDbArc
 50
0.0
 51
90.0
  0
ARC
  5
53D
330
1F
100
AcDbEntity
  8
Sichtbare_Kanten_TC_020513_DIN_
  6
Continuous
 62
     7
100
AcDbCircle
 10
223.577649445866
 20
99.03979473643446
 30
0.0
 40
0.5
100
AcDbArc
 50
90.0
 51
154.1179484035513
  0
ARC
  5
53E
330
1F
100
AcDbEntity
  8
Sichtbare_Kanten_TC_020513_DIN_
  6
Continuous
 62
     7
100
AcDbCircle
 10
209.6323836605821
 20
105.8058543118285
 30
0.0
 40
15.00000000000019
100
AcDbArc
 50
251.6923269007137
 51
334.1179484035667
  0
ARC
  5
53F
330
1F
100
AcDbEntity
  8
Sichtbare_Kanten_TC_020513_DIN_
  6
Continuous
 62
     7
100
AcDbCircle
 10
205.077649445866
 20
92.03979473643429
 30
0.0
 40
0.5
100
AcDbArc
 50
180.0
 51
251.6923269007628
  0
ARC
  5
540
330
1F
100
AcDbEntity
  8
Sichtbare_Kanten_TC_020513_DIN_
  6
Continuous
 62
     7
100
AcDbCircle
 10
235.339994530862
 20
93.22315743384357
 30
0.0
 40
1.499999999999943
100
AcDbArc
 50
90.0
 51
180.0000000000022
  0
ARC
  5
541
330
1F
100
AcDbEntity
  8
Sichtbare_Kanten_TC_020513_DIN_
  6
Continuous
 62
     7
100
AcDbCircle
 10
235.339994530862
 20
93.22315743384357
 30
0.0
 40
0.1000000000000227
100
AcDbArc
 50
90.0
 51
180.0000000000326
  0
ARC
  5
542
330
1F
100
AcDbEntity
  8
Sichtbare_Kanten_TC_020513_DIN_
  6
Continuous
 62
     7
100
AcDbCircle
 10
211.577649445864
 20
76.1197947364343
 30
0.0
 40
12.32999999999998
100
AcDbArc
 50
0.0
 51
180.0
  0
ARC
  5
543
330
1F
100
AcDbEntity
  8
Sichtbare_Kanten_TC_020513_DIN_
  6
Continuous
 62
     7
100
AcDbCircle
 10
172.8276494458721
 20
88.03979473643429
 30
0.0
 40
1.0
100
AcDbArc
 50
180.0
 51
270.0
  0
ARC
  5
544
330
1F
100
AcDbEntity
  8
Sichtbare_Kanten_TC_020513_DIN_
  6
Continuous
 62
     7
100
AcDbCircle
 10
172.8276494458721
 20
117.5397947364345
 30
0.0
 40
1.0
100
AcDbArc
 50
90.0
 51
180.0
  0
ARC
  5
545
330
1F
100
AcDbEntity
  8
Sichtbare_Kanten_TC_020513_DIN_
  6
Continuous
 62
     7
100
AcDbCircle
 10
221.4638925566321
 20
108.5397947364345
 30
0.0
 40
0.4999999999997924
100
AcDbArc
 50
128.3440606645748
 51
174.9999999999828
  0
ARC
  5
546
330
1F
100
AcDbEntity
  8
Sichtbare_Kanten_TC_020513_DIN_
  6
Continuous
 62
     7
100
AcDbCircle
 10
231.5776494458671
 20
116.5397947364345
 30
0.0
 40
0.4999999999997284
100
AcDbArc
 50
38.34406066456815
 51
128.3440606646591
  0
ARC
  5
547
330
1F
100
AcDbEntity
  8
Sichtbare_Kanten_TC_020513_DIN_
  6
Continuous
 62
     7
100
AcDbCircle
 10
235.5776494458671
 20
113.9007800714295
 30
0.0
 40
1.000000000000194
100
AcDbArc
 50
218.3440606646084
 51
270.0
  0
ARC
  5
548
330
1F
100
AcDbEntity
  8
Sichtbare_Kanten_TC_020513_DIN_
  6
Continuous
 62
     7
100
AcDbCircle
 10
215.317367765039
 20
95.53979473643429
 30
0.0
 40
35.00000000000006
100
AcDbArc
 50
58.50330715785396
 51
90.0
  0
ARC
  5
549
330
1F
100
AcDbEntity
  8
Sichtbare_Kanten_TC_020513_DIN_
  6
Continuous
 62
     7
100
AcDbCircle
 10
207.317367765039
 20
126.2397947364345
 30
0.0
 40
4.299999999999983
100
AcDbArc
 50
90.0
 51
298.9550243718555
  0
ARC
  5
54A
330
1F
100
AcDbEntity
  8
Sichtbare_Kanten_TC_020513_DIN_
  6
Continuous
 62
     7
100
AcDbCircle
 10
211.5776494458671
 20
118.5397947364345
 30
0.0
 40
4.499999999999681
100
AcDbArc
 50
20.26853458426848
 51
118.9550243718635
  0
ARC
  5
54B
330
1F
100
AcDbEntity
  8
Sichtbare_Kanten_TC_020513_DIN_
  6
Continuous
 62
     7
100
AcDbCircle
 10
216.3956117407391
 20
117.0397947364345
 30
0.0
 40
0.5000000000004116
100
AcDbArc
 50
325.2685345842158
 51
20.26853458427272
  0
ARC
  5
54C
330
1F
100
AcDbEntity
  8
Sichtbare_Kanten_TC_020513_DIN_
  6
Continuous
 62
     7
100
AcDbCircle
 10
165.327649445869
 20
171.0397947364345
 30
0.0
 40
1.0
100
AcDbArc
 50
90.0
 51
180.0
  0
ARC
  5
54D
330
1F
100
AcDbEntity
  8
Sichtbare_Kanten_TC_020513_DIN_
  6
Continuous
 62
     7
100
AcDbCircle
 10
165.327649445869
 20
133.0397947364345
 30
0.0
 40
1.0
100
AcDbArc
 50
180.0
 51
270.0
  0
ARC
  5
54E
330
1F
100
AcDbEntity
  8
Sichtbare_Kanten_TC_020513_DIN_
  6
Continuous
 62
     7
100
AcDbCircle
 10
179.327649445874
 20
119.8435216606135
 30
0.0
 40
0.5
100
AcDbArc
 50
0.0
 51
83.00000000006989
  0
ARC
  5
54F
330
1F
100
AcDbEntity
  8
Sichtbare_Kanten_TC_020513_DIN_
  6
Continuous
 62
     7
100
AcDbCircle
 10
170.827649445874
 20
112.5397947364345
 30
0.0
 40
0.9999999999997868
100
AcDbArc
 50
194.2932903099165
 51
270.0
  0
ARC
  5
550
330
1F
100
AcDbEntity
  8
Stich_1-Linien_TC_020513_DIN_
  6
DASHED_SPACE
 62
     7
100
AcDbCircle
 10
208.577649445866
 20
94.53979473643429
 30
0.0
 40
48.93394997172098
100
AcDbArc
 50
0.0
 51
47.51779800083435
  0
CIRCLE
  5
551
330
1F
100
AcDbEntity
  8
Sichtbare_Kanten_TC_020513_DIN_
  6
Continuous
 62
     7
100
AcDbCircle
 10
208.577649445866
 20
94.53979473643429
 30
0.0
 40
1.75
  0
CIRCLE
  5
552
330
1F
100
AcDbEntity
  8
Sichtbare_Kanten_TC_020513_DIN_
  6
Continuous
 62
     7
100
AcDbCircle
 10
211.577649445864
 20
76.1197947364343
 30
0.0
 40
10.57999999999998
  0
CIRCLE
  5
553
330
1F
100
AcDbEntity
  8
Sichtbare_Kanten_TC_020513_DIN_
  6
Continuous
 62
     7
100
AcDbCircle
 10
211.577649445864
 20
76.1197947364343
 30
0.0
 40
7.580000000003992
  0
CIRCLE
  5
554
330
1F
100
AcDbEntity
  8
Sichtbare_Kanten_TC_020513_DIN_
  6
Continuous
 62
     7
100
AcDbCircle
 10
211.577649445866
 20
105.5397947364345
 30
0.0
 40
4.700000000000102
  0
CIRCLE
  5
555
330
1F
100
AcDbEntity
  8
Sichtbare_Kanten_TC_020513_DIN_
  6
Continuous
 62
     7
100
AcDbCircle
 10
168.827649445866
 20
152.0397947364345
 30
0.0
 40
4.5
  0
SPLINE
  5
556
330
1F
100
AcDbEntity
  8
Sichtbare_Kanten_TC_020513_DIN_
  6
Continuous
 62
     7
100
AcDbSpline
210
0.0
220
0.0
230
1.0
 70
     8
 71
     3
 72
    19
 73
    15
 74
    13
 42
0.000000001
 43
0.0000000001
 44
0.00000001
 40
0.0
 40
0.0
 40
0.0
 40
0.0
 40
0.3221862205370168
 40
0.6443862618341905
 40
0.8094705328394151
 40
0.9745562229277731
 40
1.142463280811726
 40
1.310374909566942
 40
1.480895931773726
 40
1.651417687594005
 40
1.824033462668583
 40
1.99666119504064
 40
2.257865073019144
 40
2.518894987888936
 40
2.518894987888936
 40
2.518894987888936
 40
2.518894987888936
 10
73.47194632276683
 20
105.2405663062455
 30
0.0
 10
73.50815998564455
 20
105.139131985607
 30
0.0
 10
73.5805888783676
 20
104.9362589985717
 30
0.0
 10
73.7299805248011
 20
104.7085685550634
 30
0.0
 10
73.87033420163773
 20
104.5423923165046
 30
0.0
 10
73.98868137269311
 20
104.4255754816908
 30
0.0
 10
74.11733014248583
 20
104.3188414390415
 30
0.0
 10
74.25611015481351
 20
104.222428452111
 30
0.0
 10
74.40324430777322
 20
104.1375692578569
 30
0.0
 10
74.55829472156715
 20
104.0645074554315
 30
0.0
 10
74.71945165961938
 20
104.0040055544613
 30
0.0
 10
74.91402523490855
 20
103.9487497638536
 30
0.0
 10
75.14256550929677
 20
103.906006271792
 30
0.0
 10
75.31673982630946
 20
103.9000615350822
 30
0.0
 10
75.40379797534496
 20
103.8970901641925
 30
0.0
 11
73.47194632276683
 21
105.2405663062455
 31
0.0
 11
73.59221073396306
 21
104.9416676055312
 31
0.0
 11
73.76549388676703
 21
104.6700321568139
 31
0.0
 11
73.87218809951906
 21
104.5440592954399
 31
0.0
 11
73.98958441297187
 21
104.427992974154
 31
0.0
 11
74.11877729307923
 21
104.3207456894391
 31
0.0
 11
74.25664510264289
 21
104.2248979852533
 31
0.0
 11
74.40433235421158
 21
104.1396577660588
 31
0.0
 11
74.55856145186357
 21
104.0669181285787
 31
0.0
 11
74.72017114308079
 21
104.0062673765712
 31
0.0
 11
74.88615988513996
 21
103.9588535421343
 31
0.0
 11
75.14322597223872
 21
103.912544868789
 31
0.0
 11
75.40379797534496
 21
103.8970901641925
 31
0.0
  0
SPLINE
  5
557
330
1F
100
AcDbEntity
  8
Sichtbare_Kanten_TC_020513_DIN_
  6
Continuous
 62
     7
100
AcDbSpline
210
0.0
220
0.0
230
1.0
 70
     8
 71
     3
 72
    19
 73
    15
 74
    13
 42
0.000000001
 43
0.0000000001
 44
0.00000001
 40
0.0
 40
0.0
 40
0.0
 40
0.0
 40
0.3221862205365291
 40
0.6443862618340501
 40
0.8094705328393507
 40
0.9745562229277187
 40
1.142463280811671
 40
1.310374909566872
 40
1.480895931773662
 40
1.651417687593947
 40
1.82403346266852
 40
1.996661195040581
 40
2.257865073019083
 40
2.518894987888876
 40
2.518894987888876
 40
2.518894987888876
 40
2.518894987888876
 10
73.47194632276683
 20
104.6489007398085
 30
0.0
 10
73.50815998564458
 20
104.5474664191701
 30
0.0
 10
73.58058887836788
 20
104.344593432135
 30
0.0
 10
73.72998052480102
 20
104.1169029886266
 30
0.0
 10
73.87033420163772
 20
103.9507267500676
 30
0.0
 10
73.98868137269308
 20
103.8339099152538
 30
0.0
 10
74.11733014248583
 20
103.7271758726045
 30
0.0
 10
74.25611015481354
 20
103.6307628856741
 30
0.0
 10
74.4032443077732
 20
103.5459036914199
 30
0.0
 10
74.55829472156718
 20
103.4728418889945
 30
0.0
 10
74.71945165961937
 20
103.4123399880243
 30
0.0
 10
74.91402523490856
 20
103.3570841974166
 30
0.0
 10
75.14256550929676
 20
103.314340705355
 30
0.0
 10
75.31673982630949
 20
103.3083959686453
 30
0.0
 10
75.40379797534496
 20
103.3054245977555
 30
0.0
 11
73.47194632276683
 21
104.6489007398085
 31
0.0
 11
73.59221073396306
 21
104.3500020390947
 31
0.0
 11
73.76549388676703
 21
104.078366590377
 31
0.0
 11
73.87218809951906
 21
103.9523937290029
 31
0.0
 11
73.98958441297187
 21
103.836327407717
 31
0.0
 11
74.11877729307923
 21
103.7290801230021
 31
0.0
 11
74.25664510264289
 21
103.6332324188163
 31
0.0
 11
74.40433235421158
 21
103.5479921996218
 31
0.0
 11
74.55856145186357
 21
103.4752525621417
 31
0.0
 11
74.72017114308079
 21
103.4146018101342
 31
0.0
 11
74.88615988513996
 21
103.3671879756973
 31
0.0
 11
75.14322597223872
 21
103.3208793023521
 31
0.0
 11
75.40379797534496
 21
103.3054245977555
 31
0.0
  0
SPLINE
  5
558
330
1F
100
AcDbEntity
  8
Sichtbare_Kanten_TC_020513_DIN_
  6
Continuous
 62
     7
100
AcDbSpline
210
0.0
220
0.0
230
1.0
 70
     8
 71
     3
 72
    19
 73
    15
 74
    13
 42
0.000000001
 43
0.0000000001
 44
0.00000001
 40
0.0
 40
0.0
 40
0.0
 40
0.0
 40
0.3474606674141
 40
0.69491753502906
 40
0.8665696488942147
 40
1.038221191655174
 40
1.207484861389492
 40
1.376745209809037
 40
1.543251855852892
 40
1.709751057159558
 40
1.873443934532916
 40
2.037147336108849
 40
2.278188137687124
 40
2.518986528945854
 40
2.518986528945854
 40
2.518986528945854
 40
2.518986528945854
 10
106.0585680756361
 20
103.3054245977555
 30
0.0
 10
106.1744998455487
 20
103.3106815601472
 30
0.0
 10
106.4063621163972
 20
103.3211954421154
 30
0.0
 10
106.6884339225679
 20
103.3922687598282
 30
0.0
 10
106.9042180244017
 20
103.4728357356469
 30
0.0
 10
107.0589547727152
 20
103.5458295488918
 30
0.0
 10
107.2064315615735
 20
103.6308757189378
 30
0.0
 10
107.3448596678936
 20
103.7270354458037
 30
0.0
 10
107.4738699557255
 20
103.8340671401723
 30
0.0
 10
107.5917912458138
 20
103.9505744517468
 30
0.0
 10
107.6984549713557
 20
104.0763109168826
 30
0.0
 10
107.8073301416851
 20
104.2315470753317
 30
0.0
 10
107.9124638579564
 20
104.4205695305822
 30
0.0
 10
107.9644431594665
 20
104.5728158664311
 30
0.0
 10
107.990419728214
 20
104.6489007398085
 30
0.0
 11
106.0585680756361
 21
103.3054245977555
 31
0.0
 11
106.4049473949257
 21
103.3328158839943
 31
0.0
 11
106.7426083622869
 21
103.4147386925503
 31
0.0
 11
106.903316981435
 21
103.4750477969516
 31
0.0
 11
107.0585680756355
 21
103.5482690373858
 31
0.0
 11
107.205165383595
 21
103.6328823896307
 31
0.0
 11
107.3441432950088
 21
103.7294960837985
 31
0.0
 11
107.4722528662584
 21
103.8358558561307
 31
0.0
 11
107.5906569618739
 21
103.9529133396893
 31
0.0
 11
107.6964532672086
 21
104.077823308062
 31
0.0
 11
107.7906188832044
 21
104.211732384792
 31
0.0
 11
107.9058733009316
 21
104.4234328531074
 31
0.0
 11
107.990419728214
 21
104.6489007398085
 31
0.0
  0
SPLINE
  5
559
330
1F
100
AcDbEntity
  8
Sichtbare_Kanten_TC_020513_DIN_
  6
Continuous
 62
     7
100
AcDbSpline
210
0.0
220
0.0
230
1.0
 70
     8
 71
     3
 72
    19
 73
    15
 74
    13
 42
0.000000001
 43
0.0000000001
 44
0.00000001
 40
0.0
 40
0.0
 40
0.0
 40
0.0
 40
0.3474606674141
 40
0.6949175350290737
 40
0.8665696488941786
 40
1.038221191655176
 40
1.207484861389462
 40
1.37674520980903
 40
1.543251855852925
 40
1.709751057159581
 40
1.873443934532939
 40
2.037147336108832
 40
2.278188137687088
 40
2.518986528945855
 40
2.518986528945855
 40
2.518986528945855
 40
2.518986528945855
 10
106.0585680756361
 20
103.8970901641925
 30
0.0
 10
106.1744998455487
 20
103.9023471265842
 30
0.0
 10
106.4063621163972
 20
103.9128610085524
 30
0.0
 10
106.6884339225678
 20
103.9839343262652
 30
0.0
 10
106.9042180244017
 20
104.0645013020839
 30
0.0
 10
107.0589547727152
 20
104.1374951153287
 30
0.0
 10
107.2064315615735
 20
104.2225412853748
 30
0.0
 10
107.3448596678936
 20
104.3187010122407
 30
0.0
 10
107.4738699557255
 20
104.4257327066093
 30
0.0
 10
107.5917912458138
 20
104.5422400181838
 30
0.0
 10
107.6984549713557
 20
104.6679764833196
 30
0.0
 10
107.807330141685
 20
104.8232126417687
 30
0.0
 10
107.9124638579564
 20
105.0122350970192
 30
0.0
 10
107.9644431594665
 20
105.164481432868
 30
0.0
 10
107.990419728214
 20
105.2405663062455
 30
0.0
 11
106.0585680756361
 21
103.8970901641925
 31
0.0
 11
106.4049473949257
 21
103.9244814504313
 31
0.0
 11
106.7426083622869
 21
104.0064042589873
 31
0.0
 11
106.903316981435
 21
104.0667133633885
 31
0.0
 11
107.0585680756355
 21
104.1399346038228
 31
0.0
 11
107.2051653835949
 21
104.2245479560677
 31
0.0
 11
107.3441432950088
 21
104.3211616502355
 31
0.0
 11
107.4722528662584
 21
104.4275214225678
 31
0.0
 11
107.5906569618739
 21
104.5445789061263
 31
0.0
 11
107.6964532672087
 21
104.6694888744991
 31
0.0
 11
107.7906188832044
 21
104.803397951229
 31
0.0
 11
107.9058733009316
 21
105.0150984195444
 31
0.0
 11
107.990419728214
 21
105.2405663062455
 31
0.0
  0
LWPOLYLINE
  5
55A
330
1F
100
AcDbEntity
  8
Sichtbare_Kanten_TC_020513_DIN_
  6
Continuous
 62
     7
100
AcDbPolyline
 90
       25
 70
     0
 43
0.0
 10
80.94782027925163
 20
93.30302315287716
 10
80.94796094621324
 20
93.30473380618221
 10
80.94852540219932
 20
93.3067269855035
 10
80.94972226346636
 20
93.30891447596676
 10
80.95158848489433
 20
93.31104355387819
 10
80.95393809999138
 20
93.31290798716671
 10
80.95666978086143
 20
93.31452684931881
 10
80.95971438611656
 20
93.31593351893551
 10
80.96303734506273
 20
93.31716137461788
 10
80.96657607282305
 20
93.31822233729488
 10
80.97026798452043
 20
93.31913309626711
 10
80.97405168737083
 20
93.3199067645563
 10
80.97788724626213
 20
93.32056122355587
 10
80.98180684770256
 20
93.32112031512386
 10
80.98578068936973
 20
93.32159357600338
 10
80.98977539266258
 20
93.3219881587518
 10
80.99375459874773
 20
93.32231002383358
 10
80.99768433297783
 20
93.32256751589901
 10
81.00152883256584
 20
93.32276659541256
 10
81.00525293077135
 20
93.3229156070245
 10
81.00882265294695
 20
93.3230217032922
 10
81.01220283235216
 20
93.32309203677309
 10
81.01535770620018
 20
93.32313376002438
 10
81.01825270379686
 20
93.3231528335107
 10
81.02085265840196
 20
93.32315760188229
  0
LWPOLYLINE
  5
55B
330
1F
100
AcDbEntity
  8
Sichtbare_Kanten_TC_020513_DIN_
  6
Continuous
 62
     7
100
AcDbPolyline
 90
       25
 70
     0
 43
0.0
 10
100.4415133925791
 20
93.32315760188229
 10
100.444121691834
 20
93.3231528335107
 10
100.447005364548
 20
93.32313495211727
 10
100.4501334163061
 20
93.32309561305178
 10
100.4534718724601
 20
93.32303004794247
 10
100.456989142548
 20
93.3229287200464
 10
100.460653040062
 20
93.32278566889889
 10
100.4644295903551
 20
93.3225949340356
 10
100.4682877990121
 20
93.3223481708063
 10
100.472194883477
 20
93.3220382266534
 10
100.4761174651491
 20
93.32165914111269
 10
100.480023953568
 20
93.3212037616266
 10
100.483881566178
 20
93.32066493563778
 10
100.487658116471
 20
93.32003431849611
 10
100.491320225846
 20
93.3193071418298
 10
100.4948363038411
 20
93.31847506098879
 10
100.4981884690631
 20
93.31752615504391
 10
100.501411888253
 20
93.31642227702267
 10
100.5044463607181
 20
93.31514554553158
 10
100.507219168793
 20
93.31367807917721
 10
100.509656998765
 20
93.3120079570306
 10
100.5116883250581
 20
93.3101137214197
 10
100.5132386418691
 20
93.3079739146722
 10
100.5142137738581
 20
93.30559807353151
 10
100.5145457717291
 20
93.30302315287716
  0
LWPOLYLINE
  5
55C
330
1F
100
AcDbEntity
  8
Sichtbare_Kanten_TC_020513_DIN_
  6
Continuous
 62
     7
100
AcDbPolyline
 90
       25
 70
     0
 43
0.0
 10
71.84340092862755
 20
110.1572717957985
 10
71.83357212270403
 20
110.2036361628065
 10
71.82374808515215
 20
110.2503572636145
 10
71.81392762387895
 20
110.2974234753145
 10
71.80410835469866
 20
110.3448225789565
 10
71.79429146970415
 20
110.3925429516325
 10
71.78447577680254
 20
110.4405726724165
 10
71.77465889180803
 20
110.4888992243305
 10
71.76484200681352
 20
110.5375112824925
 10
71.75502392972618
 20
110.5863966279515
 10
71.74520346845293
 20
110.6355430417555
 10
71.73537823880815
 20
110.6849386029735
 10
71.72555062497764
 20
110.7345719867245
 10
71.71572181905412
 20
110.7844062381285
 10
71.70589778150224
 20
110.8344032102125
 10
71.69607732022905
 20
110.8845515780935
 10
71.68625805104875
 20
110.9348382287515
 10
71.67644116605425
 20
110.9852500491635
 10
71.66662547315264
 20
111.0357757144465
 10
71.65680978025102
 20
111.0864021115795
 10
71.64699289525657
 20
111.1371161275395
 10
71.63717362607628
 20
111.1879058413995
 10
71.62735316480303
 20
111.2387587361825
 10
71.61752912725115
 20
111.2896616988675
 10
71.60770032132774
 20
111.3406028085245
  0
LWPOLYLINE
  5
55D
330
1F
100
AcDbEntity
  8
Sichtbare_Kanten_TC_020513_DIN_
  6
Continuous
 62
     7
100
AcDbPolyline
 90
       25
 70
     0
 43
0.0
 10
71.60770032132774
 20
111.3406028085245
 10
71.61752912725115
 20
111.3151325517195
 10
71.62735316480303
 20
111.2896807723535
 10
71.63717362607628
 20
111.2642546229855
 10
71.64699289525657
 20
111.2388594680325
 10
71.65680978025102
 20
111.2135024600515
 10
71.66662547315264
 20
111.1881895595085
 10
71.67644116605425
 20
111.1629267268675
 10
71.68625805104875
 20
111.1377205186385
 10
71.69607732022905
 20
111.1125774913325
 10
71.70589778150224
 20
111.0875030093685
 10
71.71572181905412
 20
111.0625048213495
 10
71.72555062497764
 20
111.0375876956475
 10
71.73537823880815
 20
111.0127707057485
 10
71.74520346845293
 20
110.9880729251395
 10
71.75502392972618
 20
110.9634997182385
 10
71.76484200681352
 20
110.9390570455085
 10
71.77465889180803
 20
110.9147508674155
 10
71.78447577680254
 20
110.8905877404705
 10
71.79429146970415
 20
110.8665730290905
 10
71.80410835469866
 20
110.8427126937405
 10
71.81392762387895
 20
110.8190132909315
 10
71.82374808515215
 20
110.7954801850805
 10
71.83357212270403
 20
110.7721193366535
 10
71.84340092862755
 20
110.7489373021615
  0
LWPOLYLINE
  5
55E
330
1F
100
AcDbEntity
  8
Sichtbare_Kanten_TC_020513_DIN_
  6
Continuous
 62
     7
100
AcDbPolyline
 90
       25
 70
     0
 43
0.0
 10
58.77319905484825
 20
123.1217749648585
 10
58.76977774823814
 20
123.1307037406455
 10
58.76650187696123
 20
123.1396313243405
 10
58.76337144101763
 20
123.1485589080345
 10
58.76038405622154
 20
123.1574864917295
 10
58.75753972257286
 20
123.1664128833305
 10
58.75484320844316
 20
123.1753404670255
 10
58.75228974546104
 20
123.1842668586265
 10
58.74988410199785
 20
123.1931944423215
 10
58.74762150968223
 20
123.2021208339225
 10
58.74550435269975
 20
123.2110484176175
 10
58.74353263105064
 20
123.2199771934045
 10
58.74170634473472
 20
123.2289059691915
 10
58.74002787793785
 20
123.2378335528865
 10
58.73849246228843
 20
123.2467623286735
 10
58.73710486615806
 20
123.2556899123685
 10
58.73586270536094
 20
123.2646174960625
 10
58.73476597989708
 20
123.2735438876645
 10
58.73381468976646
 20
123.2824714713585
 10
58.73301121915483
 20
123.2913978629605
 10
58.73235318387657
 20
123.3003242545615
 10
58.73184058393144
 20
123.3092518382565
 10
58.73147580350548
 20
123.3181794219505
 10
58.73125645841265
 20
123.3271081977385
 10
58.73118254865318
 20
123.3360357814325
  0
LWPOLYLINE
  5
55F
330
1F
100
AcDbEntity
  8
Sichtbare_Kanten_TC_020513_DIN_
  6
Continuous
 62
     7
100
AcDbPolyline
 90
       25
 70
     0
 43
0.0
 10
60.13118359769493
 20
123.3360357814325
 10
60.13121936048174
 20
123.3271081977385
 10
60.13132903302818
 20
123.3181794219505
 10
60.13151261533403
 20
123.3092518382565
 10
60.13176772321373
 20
123.3003242545615
 10
60.13209674085283
 20
123.2913978629605
 10
60.13249966825157
 20
123.2824714713585
 10
60.13297412122392
 20
123.2735438876645
 10
60.13352248395586
 20
123.2646174960625
 10
60.13414475644737
 20
123.2556899123685
 10
60.13483855451256
 20
123.2467623286735
 10
60.13560387815147
 20
123.2378335528865
 10
60.13644549573564
 20
123.2289059691915
 10
60.13735863889366
 20
123.2199771934045
 10
60.13834330762535
 20
123.2110484176175
 10
60.13940188611656
 20
123.2021208339225
 10
60.14053437436724
 20
123.1931944423215
 10
60.14173600400596
 20
123.1842668586265
 10
60.14301392758995
 20
123.1753404670255
 10
60.14436099256187
 20
123.1664128833305
 10
60.14578196729326
 20
123.1574864917295
 10
60.14727685178423
 20
123.1485589080345
 10
60.14884326184892
 20
123.1396313243405
 10
60.15048119748735
 20
123.1307037406455
 10
60.15219065869957
 20
123.1217749648585
  0
LWPOLYLINE
  5
560
330
1F
100
AcDbEntity
  8
Sichtbare_Kanten_TC_020513_DIN_
  6
Continuous
 62
     7
100
AcDbPolyline
 90
       25
 70
     0
 43
0.0
 10
59.16212174619346
 20
122.9007800155175
 10
59.13270566190386
 20
122.9013188415065
 10
59.10428378308916
 20
122.9029388957515
 10
59.07686803067833
 20
122.9056449466245
 10
59.05046794141435
 20
122.9094417624965
 10
59.02509305204063
 20
122.9143317275535
 10
59.00075289930015
 20
122.9203208022605
 10
58.97746178830766
 20
122.9274125628965
 10
58.95522448743486
 20
122.9356117778315
 10
58.93405530179643
 20
122.9449220233455
 10
58.91397092069298
 20
122.9553432994375
 10
58.89538380826616
 20
122.9666252666005
 10
58.87843463147783
 20
122.9785390429985
 10
58.86303755963945
 20
122.9909487300405
 10
58.84911629880577
 20
123.0037208133235
 10
58.83658978665977
 20
123.0167205863485
 10
58.82537457669884
 20
123.0298133426205
 10
58.81538960660606
 20
123.0428655677335
 10
58.80655858243614
 20
123.0557413630975
 10
58.79879567350054
 20
123.0683072143085
 10
58.79202220166826
 20
123.0804272227775
 10
58.78615710462236
 20
123.0919690661925
 10
58.78111932004595
 20
123.1027968459615
 10
58.77682540143633
 20
123.1127770476835
 10
58.77319905484825
 20
123.1217749648585
  0
LWPOLYLINE
  5
561
330
1F
100
AcDbEntity
  8
Sichtbare_Kanten_TC_020513_DIN_
  6
Continuous
 62
     7
100
AcDbPolyline
 90
       25
 70
     0
 43
0.0
 10
60.15219065869957
 20
123.1217749648585
 10
60.15401694501543
 20
123.1126912169945
 10
60.15615555967003
 20
123.1027122073665
 10
60.15864226545006
 20
123.0919571452635
 10
60.16152236188555
 20
123.0805500083455
 10
60.16483638013506
 20
123.0686111979975
 10
60.16862008298546
 20
123.0562623076925
 10
60.17292115415245
 20
123.0436261230005
 10
60.17777535642296
 20
123.0308230453025
 10
60.18322560514116
 20
123.0179758601675
 10
60.18931004727983
 20
123.0052061610715
 10
60.19607398236894
 20
122.9926355414885
 10
60.20355317319536
 20
122.9803855948935
 10
60.21179291928917
 20
122.9685779147635
 10
60.22082898343706
 20
122.9573352866665
 10
60.23063513959556
 20
122.9468508296505
 10
60.24106356824547
 20
122.9373736911305
 10
60.25211665357256
 20
122.9289348655235
 10
60.26380393232017
 20
122.9215546184075
 10
60.27613017285972
 20
122.9152544074545
 10
60.28908583844805
 20
122.9100640349875
 10
60.30262324536943
 20
122.9060133033285
 10
60.31673285688066
 20
122.9031105571285
 10
60.33141228879595
 20
122.9013641410365
 10
60.34665200437217
 20
122.9007800155175
  0
LWPOLYLINE
  5
562
330
1F
100
AcDbEntity
  8
Sichtbare_Kanten_TC_020513_DIN_
  6
Continuous
 62
     7
100
AcDbPolyline
 90
       25
 70
     0
 43
0.0
 10
72.44670960630083
 20
122.2638638549335
 10
72.47433874334007
 20
122.3973544173735
 10
72.50191781247764
 20
122.5277789168845
 10
72.52946231092125
 20
122.6548977427975
 10
72.55699131215715
 20
122.7784712844385
 10
72.58452269757896
 20
122.8982587390435
 10
72.61207315648704
 20
123.0140228801265
 10
72.63966176236778
 20
123.1255217128285
 10
72.66730282033586
 20
123.2325025134575
 10
72.69492003644615
 20
123.3343835406795
 10
72.72248956884056
 20
123.4308333926685
 10
72.75002929891258
 20
123.5216863685145
 10
72.77755710805565
 20
123.6067767673025
 10
72.80509087766313
 20
123.6859388881215
 10
72.83264968122154
 20
123.7590094142445
 10
72.86024901593834
 20
123.8258226447595
 10
72.88789722646385
 20
123.8861890368955
 10
72.91553232396745
 20
123.9398022227775
 10
72.94315430844932
 20
123.9865358405605
 10
72.97078344548845
 20
124.0262992911825
 10
72.99843523229265
 20
124.0590019755855
 10
73.02607390607506
 20
124.0845127635495
 10
73.05369827474266
 20
124.1027732425225
 10
73.08132383550316
 20
124.1137512259975
 10
73.10896966184288
 20
124.1174169116515
  0
LWPOLYLINE
  5
563
330
1F
100
AcDbEntity
  8
Sichtbare_Kanten_TC_020513_DIN_
  6
Continuous
 62
     7
100
AcDbPolyline
 90
       25
 70
     0
 43
0.0
 10
73.10896966184288
 20
122.7174170547025
 10
73.08131310666704
 20
122.7155824237355
 10
73.05371257985735
 20
122.7100987964165
 10
73.02614900792747
 20
122.7009935908805
 10
72.99860450948387
 20
122.6882978015435
 10
72.97106120313316
 20
122.6720400386345
 10
72.94350239957475
 20
122.6522477202905
 10
72.91590902532243
 20
122.6289518409265
 10
72.88826319898277
 20
122.6021810107725
 10
72.86059829915666
 20
122.5720222526085
 10
72.83298823560386
 20
122.5386436515345
 10
72.80541989530235
 20
122.5021322303305
 10
72.77787301267296
 20
122.4625678592215
 10
72.75033089841514
 20
122.4200339847105
 10
72.72277686322838
 20
122.3746128612055
 10
72.69519064153343
 20
122.3263855510245
 10
72.66755435193687
 20
122.2754355006705
 10
72.63988349164634
 20
122.2219057612905
 10
72.61225912297874
 20
122.1661027007595
 10
72.58467528546953
 20
122.1081634097585
 10
72.55711171353965
 20
122.0482082896725
 10
72.52955052579546
 20
121.9863589339745
 10
72.50197622502952
 20
121.9227333598625
 10
72.47436735356956
 20
121.8574543529045
 10
72.44670960630083
 20
121.7906411223905
  0
LWPOLYLINE
  5
564
330
1F
100
AcDbEntity
  8
Sichtbare_Kanten_TC_020513_DIN_
  6
Continuous
 62
     7
100
AcDbPolyline
 90
       25
 70
     0
 43
0.0
 10
72.03528139318138
 20
121.3174171977535
 10
72.04548690045976
 20
121.3311739497675
 10
72.05701086248064
 20
121.3470383220205
 10
72.06974479879045
 20
121.3649805121915
 10
72.08357903684288
 20
121.3849778705135
 10
72.09840509618425
 20
121.4070017867575
 10
72.11411211217546
 20
121.4310260348805
 10
72.13059279645586
 20
121.4570243888395
 10
72.14773628438616
 20
121.4849718146815
 10
72.16543409551286
 20
121.5148397021785
 10
72.18357774938255
 20
121.5466042094725
 10
72.20205757344866
 20
121.5802367263335
 10
72.22076389516496
 20
121.6157110267175
 10
72.23958704198503
 20
121.6530020766745
 10
72.25841972554826
 20
121.6920824580685
 10
72.27715108121544
 20
121.7329271369475
 10
72.29567262853294
 20
121.7755075030815
 10
72.31431934560447
 20
121.8208153777615
 10
72.33365509236955
 20
121.8706317477715
 10
72.35337707723284
 20
121.9249721103205
 10
72.37316939557695
 20
121.9838185840145
 10
72.39271614278465
 20
122.0471509032735
 10
72.41169903005266
 20
122.1149488025205
 10
72.42980215276384
 20
122.1871920161735
 10
72.44670960630083
 20
122.2638638549335
  0
LWPOLYLINE
  5
565
330
1F
100
AcDbEntity
  8
Sichtbare_Kanten_TC_020513_DIN_
  6
Continuous
 62
     7
100
AcDbPolyline
 90
       25
 70
     0
 43
0.0
 10
72.44670960630083
 20
121.7906411223905
 10
72.44086715901994
 20
121.7767496638785
 10
72.43393037046104
 20
121.7611022525325
 10
72.42579314435625
 20
121.7437942557825
 10
72.41634938443804
 20
121.7249258094325
 10
72.40549299443865
 20
121.7045946650995
 10
72.39312026227623
 20
121.6828985744015
 10
72.37912509168297
 20
121.6599376731405
 10
72.36340019429826
 20
121.6358085208425
 10
72.34584185804033
 20
121.6106088691245
 10
72.32634398664146
 20
121.5844400458825
 10
72.30479929174095
 20
121.5573974185475
 10
72.28158566678673
 20
121.5301509433285
 10
72.25801560605674
 20
121.5042634540095
 10
72.23434898580223
 20
121.4798267417445
 10
72.21078130925804
 20
121.4568503432765
 10
72.18750688756614
 20
121.4353437953485
 10
72.16472122396135
 20
121.4153190188895
 10
72.14261982167864
 20
121.3967831664575
 10
72.12139579976707
 20
121.3797469668875
 10
72.10124585355425
 20
121.3642211490165
 10
72.08236429418236
 20
121.3502152495875
 10
72.06494662488603
 20
121.3377399974355
 10
72.04918715680748
 20
121.3268037372125
 10
72.03528139318138
 20
121.3174171977535
  0
LWPOLYLINE
  5
566
330
1F
100
AcDbEntity
  8
Sichtbare_Kanten_TC_020513_DIN_
  6
Continuous
 62
     7
100
AcDbPolyline
 90
       25
 70
     0
 43
0.0
 10
109.4270846577991
 20
121.3174171977535
 10
109.413178894173
 20
121.3268037372125
 10
109.397419426095
 20
121.3377399974355
 10
109.380001756798
 20
121.3502152495875
 10
109.361120197426
 20
121.3642211490165
 10
109.3409702512141
 20
121.3797469668875
 10
109.319746229302
 20
121.3967831664575
 10
109.297644827019
 20
121.4153190188895
 10
109.2748591634141
 20
121.4353437953485
 10
109.2515847417221
 20
121.4568503432765
 10
109.2280170651781
 20
121.4798267417445
 10
109.2043504449241
 20
121.5042634540095
 10
109.1807803841941
 20
121.5301509433285
 10
109.1575667592401
 20
121.5573974185475
 10
109.136022064339
 20
121.5844400458825
 10
109.1165241929401
 20
121.6106088691245
 10
109.098965856682
 20
121.6358085208425
 10
109.0832409592981
 20
121.6599376731405
 10
109.0692457887041
 20
121.6828985744015
 10
109.056873056542
 20
121.7045946650995
 10
109.046016666543
 20
121.7249258094325
 10
109.036572906624
 20
121.7437942557825
 10
109.02843568052
 20
121.7611022525325
 10
109.021498891961
 20
121.7767496638785
 10
109.01565644468
 20
121.7906411223905
  0
LWPOLYLINE
  5
567
330
1F
100
AcDbEntity
  8
Sichtbare_Kanten_TC_020513_DIN_
  6
Continuous
 62
     7
100
AcDbPolyline
 90
       25
 70
     0
 43
0.0
 10
109.01565644468
 20
121.7906411223905
 10
108.988001081597
 20
121.8574483924405
 10
108.960399362694
 20
121.9227119021905
 10
108.9328357907641
 20
121.9863112502585
 10
108.905291292321
 20
122.0481272273555
 10
108.877749178063
 20
122.1080406241905
 10
108.8501891824121
 20
122.1659322314755
 10
108.8225958081591
 20
122.2216828399195
 10
108.794951173913
 20
122.2751720481405
 10
108.767285081994
 20
122.3261900477895
 10
108.7396750184411
 20
122.3744674258725
 10
108.712106678139
 20
122.4199195437925
 10
108.68455979551
 20
122.4624677234185
 10
108.6570188733451
 20
122.5020320945275
 10
108.6294636460651
 20
122.5385351710805
 10
108.6018774243701
 20
122.5718958907615
 10
108.574242326867
 20
122.6020367675315
 10
108.546570274483
 20
122.6288493209375
 10
108.5189459058161
 20
122.6521833472745
 10
108.4913620683061
 20
122.6720018916615
 10
108.463798496377
 20
122.6882787280575
 10
108.436238500725
 20
122.7009864383235
 10
108.408663007866
 20
122.7100964122305
 10
108.381055328499
 20
122.7155824237355
 10
108.353396389138
 20
122.7174170547025
  0
LWPOLYLINE
  5
568
330
1F
100
AcDbEntity
  8
Sichtbare_Kanten_TC_020513_DIN_
  6
Continuous
 62
     7
100
AcDbPolyline
 90
       25
 70
     0
 43
0.0
 10
109.01565644468
 20
122.2638638549335
 10
109.0325638982171
 20
122.1871920161735
 10
109.0506670209281
 20
122.1149476104275
 10
109.069649908196
 20
122.0471509032735
 10
109.089196655404
 20
121.9838185840145
 10
109.108988973748
 20
121.9249721103205
 10
109.1287109586111
 20
121.8706317477715
 10
109.148046705376
 20
121.8208153777615
 10
109.1666934224481
 20
121.7755075030815
 10
109.185214969765
 20
121.7329271369475
 10
109.203946325432
 20
121.6920824580685
 10
109.222779008996
 20
121.6530020766745
 10
109.2416021558161
 20
121.6157110267175
 10
109.2603084775321
 20
121.5802367263335
 10
109.278788301598
 20
121.5466042094725
 10
109.296931955468
 20
121.5148397021785
 10
109.314629766594
 20
121.4849718146815
 10
109.3317732545251
 20
121.4570243888395
 10
109.348253938805
 20
121.4310260348805
 10
109.363960954796
 20
121.4070017867575
 10
109.378787014138
 20
121.3849778705135
 10
109.3926212521901
 20
121.3649805121915
 10
109.4053551885
 20
121.3470383220205
 10
109.416879150521
 20
121.3311739497675
 10
109.4270846577991
 20
121.3174171977535
  0
LWPOLYLINE
  5
569
330
1F
100
AcDbEntity
  8
Sichtbare_Kanten_TC_020513_DIN_
  6
Continuous
 62
     7
100
AcDbPolyline
 90
       25
 70
     0
 43
0.0
 10
108.353396389138
 20
124.1174169116515
 10
108.3810267182701
 20
124.1137548022765
 10
108.4086045953141
 20
124.1028066211235
 10
108.4361502858511
 20
124.0846248202815
 10
108.463679287087
 20
124.0592666202085
 10
108.4912094804161
 20
124.0267868571775
 10
108.5187611314171
 20
123.9872391753685
 10
108.546349737298
 20
123.9406819873345
 10
108.5739907952661
 20
123.8871748977195
 10
108.6016068192831
 20
123.8269956641685
 10
108.629176351677
 20
123.7603791289815
 10
108.656716081749
 20
123.6874814563285
 10
108.684243890893
 20
123.6084600024715
 10
108.7117776605001
 20
123.5234697394865
 10
108.7393364640581
 20
123.4326704078215
 10
108.766935798775
 20
123.3362169795525
 10
108.7945852013941
 20
123.2343097262875
 10
108.822219106804
 20
123.1274374061125
 10
108.849842283379
 20
123.0158777766715
 10
108.877470228325
 20
122.8998513751515
 10
108.9051220151301
 20
122.7795882754815
 10
108.932761881005
 20
122.6555462413325
 10
108.96038505758
 20
122.5280757480155
 10
108.9880106183401
 20
122.3974307113185
 10
109.01565644468
 20
122.2638638549335
  0
LWPOLYLINE
  5
56A
330
1F
100
AcDbEntity
  8
Sichtbare_Kanten_TC_020513_DIN_
  6
Continuous
 62
     7
100
AcDbPolyline
 90
       25
 70
     0
 43
0.0
 10
109.618965122353
 20
110.7489373021615
 10
109.6287939282771
 20
110.7721193366535
 10
109.638617965828
 20
110.7954801850805
 10
109.6484384271021
 20
110.8190132909315
 10
109.6582576962821
 20
110.8427126937405
 10
109.668074581276
 20
110.8665730290905
 10
109.677890274178
 20
110.8905877404705
 10
109.687707159173
 20
110.9147508674155
 10
109.697524044167
 20
110.9390570455085
 10
109.707342121254
 20
110.9634997182385
 10
109.717162582528
 20
110.9880729251395
 10
109.726987812172
 20
111.0127707057485
 10
109.736815426003
 20
111.0375876956475
 10
109.746644231926
 20
111.0625048213495
 10
109.756468269478
 20
111.0875030093685
 10
109.766288730752
 20
111.1125774913325
 10
109.776107999932
 20
111.1377205186385
 10
109.785924884926
 20
111.1629267268675
 10
109.795740577828
 20
111.1881895595085
 10
109.805556270729
 20
111.2135024600515
 10
109.8153731557241
 20
111.2388594680325
 10
109.8251924249041
 20
111.2642546229855
 10
109.8350128861781
 20
111.2896807723535
 10
109.844836923729
 20
111.3151325517195
 10
109.8546657296531
 20
111.3406028085245
  0
LWPOLYLINE
  5
56B
330
1F
100
AcDbEntity
  8
Sichtbare_Kanten_TC_020513_DIN_
  6
Continuous
 62
     7
100
AcDbPolyline
 90
       25
 70
     0
 43
0.0
 10
109.8546657296531
 20
111.3406028085245
 10
109.844836923729
 20
111.2896616988675
 10
109.8350128861781
 20
111.2387587361825
 10
109.8251924249041
 20
111.1879058413995
 10
109.8153731557241
 20
111.1371161275395
 10
109.805556270729
 20
111.0864021115795
 10
109.795740577828
 20
111.0357757144465
 10
109.785924884926
 20
110.9852500491635
 10
109.776107999932
 20
110.9348382287515
 10
109.766288730752
 20
110.8845515780935
 10
109.756468269478
 20
110.8344032102125
 10
109.746644231926
 20
110.7844062381285
 10
109.736815426003
 20
110.7345719867245
 10
109.726987812172
 20
110.6849386029735
 10
109.717162582528
 20
110.6355430417555
 10
109.707342121254
 20
110.5863966279515
 10
109.697524044167
 20
110.5375112824925
 10
109.687707159173
 20
110.4888992243305
 10
109.677890274178
 20
110.4405726724165
 10
109.668074581276
 20
110.3925429516325
 10
109.6582576962821
 20
110.3448225789565
 10
109.6484384271021
 20
110.2974234753145
 10
109.638617965828
 20
110.2503572636145
 10
109.6287939282771
 20
110.2036361628065
 10
109.618965122353
 20
110.1572717957985
  0
LWPOLYLINE
  5
56C
330
1F
100
AcDbEntity
  8
Sichtbare_Kanten_TC_020513_DIN_
  6
Continuous
 62
     7
100
AcDbPolyline
 90
       25
 70
     0
 43
0.0
 10
122.731183502327
 20
123.3360357814325
 10
122.731109592568
 20
123.3271081977385
 10
122.730890247475
 20
123.3181794219505
 10
122.7305254670491
 20
123.3092518382565
 10
122.7300128671041
 20
123.3003242545615
 10
122.729354831826
 20
123.2913978629605
 10
122.728551361214
 20
123.2824714713585
 10
122.7276000710841
 20
123.2735438876645
 10
122.7265033456201
 20
123.2646174960625
 10
122.7252611848231
 20
123.2556899123685
 10
122.723873588692
 20
123.2467623286735
 10
122.7223381730431
 20
123.2378335528865
 10
122.7206597062461
 20
123.2289059691915
 10
122.71883341993
 20
123.2199771934045
 10
122.716861698281
 20
123.2110484176175
 10
122.7147445412981
 20
123.2021208339225
 10
122.7124819489831
 20
123.1931944423215
 10
122.71007630552
 20
123.1842668586265
 10
122.707522842537
 20
123.1753404670255
 10
122.7048263284081
 20
123.1664128833305
 10
122.701981994759
 20
123.1574864917295
 10
122.6989946099631
 20
123.1485589080345
 10
122.6958641740191
 20
123.1396313243405
 10
122.6925883027421
 20
123.1307037406455
 10
122.6891669961321
 20
123.1217749648585
  0
LWPOLYLINE
  5
56D
330
1F
100
AcDbEntity
  8
Sichtbare_Kanten_TC_020513_DIN_
  6
Continuous
 62
     7
100
AcDbPolyline
 90
       25
 70
     0
 43
0.0
 10
121.3101753922811
 20
123.1217749648585
 10
121.311884853493
 20
123.1307037406455
 10
121.313522789132
 20
123.1396313243405
 10
121.3150891991961
 20
123.1485589080345
 10
121.316584083687
 20
123.1574864917295
 10
121.318005058419
 20
123.1664128833305
 10
121.3193521233911
 20
123.1753404670255
 10
121.3206300469751
 20
123.1842668586265
 10
121.321831676613
 20
123.1931944423215
 10
121.322964164864
 20
123.2021208339225
 10
121.324022743355
 20
123.2110484176175
 10
121.325007412087
 20
123.2199771934045
 10
121.325920555245
 20
123.2289059691915
 10
121.326762172829
 20
123.2378335528865
 10
121.327527496468
 20
123.2467623286735
 10
121.3282212945331
 20
123.2556899123685
 10
121.3288435670251
 20
123.2646174960625
 10
121.329391929757
 20
123.2735438876645
 10
121.3298663827291
 20
123.2824714713585
 10
121.330269310128
 20
123.2913978629605
 10
121.3305983277671
 20
123.3003242545615
 10
121.330853435646
 20
123.3092518382565
 10
121.331037017952
 20
123.3181794219505
 10
121.3311466904991
 20
123.3271081977385
 10
121.331182453286
 20
123.3360357814325
  0
LWPOLYLINE
  5
56E
330
1F
100
AcDbEntity
  8
Sichtbare_Kanten_TC_020513_DIN_
  6
Continuous
 62
     7
100
AcDbPolyline
 90
       25
 70
     0
 43
0.0
 10
122.6891669961321
 20
123.1217749648585
 10
122.685526344429
 20
123.1127448611745
 10
122.6812157365191
 20
123.1027312808525
 10
122.6761564942711
 20
123.0918677382955
 10
122.6702675553671
 20
123.0802925162805
 10
122.6634654733051
 20
123.0681367450245
 10
122.6556715699541
 20
123.0555398993985
 10
122.646802398812
 20
123.0426331096185
 10
122.6367768975611
 20
123.0295546584615
 10
122.62551638807
 20
123.0164392524255
 10
122.6129398080221
 20
123.0034204059135
 10
122.598963710915
 20
122.9906352096095
 10
122.5835070344321
 20
122.9782171779165
 10
122.5664911004411
 20
122.9663034015195
 10
122.547832462441
 20
122.9550285869135
 10
122.5277671548241
 20
122.9446621470945
 10
122.506633731972
 20
122.9354055457605
 10
122.4844393464441
 20
122.9272552066335
 10
122.461195919167
 20
122.9202039771565
 10
122.4369129868861
 20
122.9142506652365
 10
122.4115977021571
 20
122.9093893104085
 10
122.3852643700951
 20
122.9056163363945
 10
122.357922527443
 20
122.9029269748225
 10
122.3295769425741
 20
122.9013164573205
 10
122.300244304787
 20
122.9007800155175
  0
LWPOLYLINE
  5
56F
330
1F
100
AcDbEntity
  8
Sichtbare_Kanten_TC_020513_DIN_
  6
Continuous
 62
     7
100
AcDbPolyline
 90
       25
 70
     0
 43
0.0
 10
121.1157140466081
 20
122.9007800155175
 10
121.129978630196
 20
122.9012890391835
 10
121.143725845467
 20
122.9028101497185
 10
121.156953308236
 20
122.9053326182855
 10
121.169661018502
 20
122.9088445239555
 10
121.18184659208
 20
122.9133375220785
 10
121.193514797341
 20
122.9188008838185
 10
121.204658481728
 20
122.9252214961545
 10
121.215284797799
 20
122.9325922065275
 10
121.225388977181
 20
122.9408999019155
 10
121.2349614831321
 20
122.9501231246485
 10
121.2439713212361
 20
122.9602070384515
 10
121.2524327966081
 20
122.9711242251885
 10
121.2603578301781
 20
122.9828508430015
 10
121.2677607270591
 20
122.9953666263115
 10
121.274658176552
 20
123.0086465411675
 10
121.281023952614
 20
123.0225749545585
 10
121.286698314797
 20
123.0366118484035
 10
121.291702720772
 20
123.0505247645865
 10
121.2960800858851
 20
123.0641420417325
 10
121.299875709664
 20
123.0772920184625
 10
121.3031396600121
 20
123.0898030334005
 10
121.3059124680871
 20
123.1015022330775
 10
121.308241817604
 20
123.1122167640225
 10
121.3101753922811
 20
123.1217749648585
  0
LWPOLYLINE
  5
570
330
1F
100
AcDbEntity
  8
Sichtbare_Kanten_TC_020513_DIN_
  6
Continuous
 62
     7
100
AcDbPolyline
 90
       25
 70
     0
 43
0.0
 10
237.427533002233
 20
123.1217749648585
 10
237.407586903905
 20
123.1307037406455
 10
237.387614579534
 20
123.1396313243405
 10
237.367623181676
 20
123.1485589080345
 10
237.347607941961
 20
123.1574864917295
 10
237.327573628759
 20
123.1664128833305
 10
237.3075202420701
 20
123.1753404670255
 10
237.2874453977101
 20
123.1842668586265
 10
237.2673538640491
 20
123.1931944423215
 10
237.2472456410881
 20
123.2021208339225
 10
237.227120728826
 20
123.2110484176175
 10
237.2069791272631
 20
123.2199771934045
 10
237.1868208364001
 20
123.2289059691915
 10
237.1666530087941
 20
123.2378335528865
 10
237.146473260259
 20
123.2467623286735
 10
237.12628397498
 20
123.2556899123685
 10
237.106087537145
 20
123.2646174960625
 10
237.085881562566
 20
123.2735438876645
 10
237.06566843543
 20
123.2824714713585
 10
237.0454481557361
 20
123.2913978629605
 10
237.025225491857
 20
123.3003242545615
 10
237.0049956754201
 20
123.3092518382565
 10
236.984761090612
 20
123.3181794219505
 10
236.964526505803
 20
123.3271081977385
 10
236.9442871526231
 20
123.3360357814325
  0
LWPOLYLINE
  5
571
330
1F
100
AcDbEntity
  8
Sichtbare_Kanten_TC_020513_DIN_
  6
Continuous
 62
     7
100
AcDbPolyline
 90
       25
 70
     0
 43
0.0
 10
238.4367850736131
 20
122.9007800155175
 10
238.389027448034
 20
122.9013188415065
 10
238.340738149022
 20
122.9029388957515
 10
238.2919481709951
 20
122.9056449466245
 10
238.2426932767381
 20
122.9094417624965
 10
238.1930092290391
 20
122.9143317275535
 10
238.1429317906851
 20
122.9203208022605
 10
238.0924895719041
 20
122.9274125628965
 10
238.041723103856
 20
122.9356117778315
 10
237.9906633809561
 20
122.9449220233455
 10
237.9393771604051
 20
122.9553432994375
 10
237.8891256764881
 20
122.9666252666005
 10
237.8406027272691
 20
122.9785390429985
 10
237.793903680181
 20
122.9909487300405
 10
237.749121518468
 20
123.0037208133235
 10
237.706351609563
 20
123.0167205863485
 10
237.665686936712
 20
123.0298133426205
 10
237.627222867345
 20
123.0428655677335
 10
237.5910571530811
 20
123.0557413630975
 10
237.5572780087941
 20
123.0683072143085
 10
237.5259831861011
 20
123.0804272227775
 10
237.4972680524341
 20
123.0919690661925
 10
237.4712255910391
 20
123.1027968459615
 10
237.447948785161
 20
123.1127770476835
 10
237.427533002233
 20
123.1217749648585
  0
LWPOLYLINE
  5
572
330
1F
100
AcDbEntity
  8
Sichtbare_Kanten_TC_020513_DIN_
  6
Continuous
 62
     7
100
AcDbPolyline
 90
       25
 70
     0
 43
0.0
 10
238.6066249326261
 20
110.1572717957985
 10
238.5855153516321
 20
110.2036361628065
 10
238.5652640775231
 20
110.2503572636145
 10
238.5458687261141
 20
110.2974234753145
 10
238.5273388341461
 20
110.3448225789565
 10
238.5096744016201
 20
110.3925429516325
 10
238.4928825810941
 20
110.4405726724165
 10
238.476965756753
 20
110.4888992243305
 10
238.461928696969
 20
110.5375112824925
 10
238.4477761701141
 20
110.5863966279515
 10
238.434510560373
 20
110.6355430417555
 10
238.4221366361171
 20
110.6849386029735
 10
238.4106567815331
 20
110.7345719867245
 10
238.4000853017361
 20
110.7844062381285
 10
238.3904245809111
 20
110.8344032102125
 10
238.3816770032441
 20
110.8845515780935
 10
238.373842568734
 20
110.9348382287515
 10
238.3669284299401
 20
110.9852500491635
 10
238.36092981849
 20
111.0357757144465
 10
238.35584911857
 20
111.0864021115795
 10
238.35169109855
 20
111.1371161275395
 10
238.3484533742461
 20
111.1879058413995
 10
238.3461407140281
 20
111.2387587361825
 10
238.344750733712
 20
111.2896616988675
 10
238.344285817483
 20
111.3406028085245
  0
LWPOLYLINE
  5
573
330
1F
100
AcDbEntity
  8
Sichtbare_Kanten_TC_020513_DIN_
  6
Continuous
 62
     7
100
AcDbPolyline
 90
       25
 70
     0
 43
0.0
 10
239.7442868665251
 20
111.3406028085245
 10
239.7445181325471
 20
111.3151325517195
 10
239.745214314798
 20
111.2896807723535
 10
239.746370644906
 20
111.2642546229855
 10
239.7479895070581
 20
111.2388594680325
 10
239.7500685170681
 20
111.2135024600515
 10
239.7526076749361
 20
111.1881895595085
 10
239.7556069806611
 20
111.1629267268675
 10
239.759064050057
 20
111.1377205186385
 10
239.762981267312
 20
111.1125774913325
 10
239.7673562482391
 20
111.0875030093685
 10
239.7721866086511
 20
111.0625048213495
 10
239.77747234855
 20
111.0375876956475
 10
239.783211083749
 20
111.0127707057485
 10
239.789398045877
 20
110.9880729251395
 10
239.7960308507471
 20
110.9634997182385
 10
239.803107114175
 20
110.9390570455085
 10
239.8106268361601
 20
110.9147508674155
 10
239.8185852483301
 20
110.8905877404705
 10
239.826979966501
 20
110.8665730290905
 10
239.8358133748561
 20
110.8427126937405
 10
239.8450783208401
 20
110.8190132909315
 10
239.854774804452
 20
110.7954801850805
 10
239.864900441507
 20
110.7721193366535
 10
239.8754552320031
 20
110.7489373021615
  0
LWPOLYLINE
  5
574
330
1F
100
AcDbEntity
  8
Sichtbare_Kanten_TC_020513_DIN_
  6
Continuous
 62
     7
100
AcDbPolyline
 90
       25
 70
     0
 43
0.0
 10
238.834967942575
 20
122.9007800155175
 10
238.9006808713471
 20
122.9925973945155
 10
238.9701131299531
 20
123.0817766719355
 10
239.043190808633
 20
123.1681986384885
 10
239.1197994664701
 20
123.2517011695395
 10
239.199617238382
 20
123.3319302135005
 10
239.2824963048491
 20
123.4087653689875
 10
239.3683246091401
 20
123.4821231894985
 10
239.456990094522
 20
123.5519249969015
 10
239.548383088449
 20
123.6180873446955
 10
239.6423891500031
 20
123.6805291705625
 10
239.7388986066381
 20
123.7391682200925
 10
239.837797017435
 20
123.7939234309685
 10
239.9389747098481
 20
123.8447125487815
 10
240.0422409490141
 20
123.8914211326135
 10
240.147242875436
 20
123.9338846736445
 10
240.2538326695951
 20
123.9720531039725
 10
240.361881585458
 20
124.0058811240685
 10
240.471253724435
 20
124.0353258185875
 10
240.5818036511931
 20
124.0603383117215
 10
240.693221421579
 20
124.0808458858025
 10
240.805316300729
 20
124.0968235068815
 10
240.917952390054
 20
124.1082544856565
 10
241.030989022592
 20
124.1151245170125
 10
241.1442879155671
 20
124.1174169116515
  0
LWPOLYLINE
  5
575
330
1F
100
AcDbEntity
  8
Sichtbare_Kanten_TC_020513_DIN_
  6
Continuous
 62
     7
100
AcDbPolyline
 90
       25
 70
     0
 43
0.0
 10
241.1442879155671
 20
122.7174170547025
 10
241.072640748361
 20
122.7155824237355
 10
241.0013273671661
 20
122.7100987964165
 10
240.9304812863861
 20
122.7009935908805
 10
240.860238404611
 20
122.6882978015435
 10
240.7907393888031
 20
122.6720400386345
 10
240.722117753366
 20
122.6522477202905
 10
240.654514165262
 20
122.6289518409265
 10
240.5880645230801
 20
122.6021810107725
 10
240.5230239347021
 20
122.5720222526085
 10
240.459740491251
 20
122.5386436515345
 10
240.398331017831
 20
122.5021322303305
 10
240.338912339548
 20
122.4625678592215
 10
240.281596513132
 20
122.4200339847105
 10
240.2264979795011
 20
122.3746128612055
 10
240.1737287953891
 20
122.3263855510245
 10
240.1234034017121
 20
122.2754355006705
 10
240.0756886914761
 20
122.2219057612905
 10
240.030854077676
 20
122.1661027007595
 10
239.9889853910001
 20
122.1081634097585
 10
239.9501589253931
 20
122.0482082896725
 10
239.9144438222441
 20
121.9863589339745
 10
239.881911607126
 20
121.9227333598625
 10
239.852636189798
 20
121.8574543529045
 10
239.82669148002
 20
121.7906411223905
  0
LWPOLYLINE
  5
576
330
1F
100
AcDbEntity
  8
Sichtbare_Kanten_TC_020513_DIN_
  6
Continuous
 62
     7
100
AcDbPolyline
 90
       25
 70
     0
 43
0.0
 10
239.82669148002
 20
121.7906411223905
 10
239.821796746591
 20
121.7767496638785
 10
239.816499085763
 20
121.7611022525325
 10
239.81088194404
 20
121.7437942557825
 10
239.8050359204801
 20
121.7249258094325
 10
239.799044461587
 20
121.7045946650995
 10
239.793000550607
 20
121.6828985744015
 10
239.7869876340421
 20
121.6599376731405
 10
239.781093926767
 20
121.6358085208425
 10
239.775407643655
 20
121.6106088691245
 10
239.7700169995821
 20
121.5844400458825
 10
239.7650102094211
 20
121.5573974185475
 10
239.760527940133
 20
121.5301509433285
 10
239.756737084726
 20
121.5042634540095
 10
239.7535875752961
 20
121.4798267417445
 10
239.751019807199
 20
121.4568503432765
 10
239.748971791604
 20
121.4353437953485
 10
239.747388692239
 20
121.4153190188895
 10
239.746210904458
 20
121.3967831664575
 10
239.745374055246
 20
121.3797469668875
 10
239.7448256925141
 20
121.3642211490165
 10
239.7445014432461
 20
121.3502152495875
 10
239.7443417027981
 20
121.3377399974355
 10
239.744291634897
 20
121.3268037372125
 10
239.7442868665251
 20
121.3174171977535
  0
SOLID
  5
577
330
1F
100
AcDbEntity
  8
Symbole_TC_020513_DIN_
 62
     7
100
AcDbTrace
 10
233.674141026897
 20
58.13870572198081
 30
0.0
 11
233.240076287757
 21
57.64383472337585
 31
0.0
 12
231.577649445866
 22
59.5397947364343
 32
0.0
 13
231.577649445866
 23
59.5397947364343
 33
0.0
  0
LEADER
  5
578
330
1F
100
AcDbEntity
  8
Symbole_TC_020513_DIN_
  6
Continuous
 62
     7
100
AcDbLeader
  3
Standard
 71
     0
 76
     3
 10
231.577649445866
 20
59.5397947364343
 30
0.0
 10
243.9860389094591
 20
48.6560606909034
 30
0.0
 10
245.6860389094591
 20
48.6560606909034
 30
0.0
  0
DIMENSION
  5
584
330
1F
100
AcDbEntity
  8
Bemaßungen_TC_020513_DIN_
100
AcDbDimension
  2
*D3
 10
141.7311830254902
 20
87.86179473643429
 30
0.0
 11
137.3118105834711
 21
75.2298493066935
 31
0.0
 70
    32
  1
PG16
 71
     5
 42
-1.0
 53
90.0
  3
ME10_DIM_10
100
AcDbAlignedDimension
 13
131.7311830254901
 23
64.37779473643431
 33
0.0
 14
131.7311830254901
 24
87.86179473643429
 34
0.0
 50
90.0
100
AcDbRotatedDimension
  0
DIMENSION
  5
58F
330
1F
100
AcDbEntity
  8
Bemaßungen_TC_020513_DIN_
100
AcDbDimension
  2
*D4
 10
55.73118302548982
 20
51.53979473643424
 30
0.0
 11
91.11465505823202
 21
55.91380565048609
 31
0.0
 70
    32
  1
70
 71
     5
 42
-1.0
 53
0.00013888888889
  3
ME10_DIM_11
100
AcDbAlignedDimension
 13
125.7311830254901
 23
61.53979473643428
 33
0.0
 14
55.73118302549034
 24
57.0397947364343
 34
0.0
100
AcDbRotatedDimension
  0
DIMENSION
  5
59A
330
1F
100
AcDbEntity
  8
Bemaßungen_TC_020513_DIN_
100
AcDbDimension
  2
*D5
 10
49.73118302549065
 20
45.53979473643425
 30
0.0
 11
91.10988016055205
 21
49.91380565048609
 31
0.0
 70
    32
  1
82
 71
     5
 42
-1.0
 53
0.00013888888889
  3
ME10_DIM_12
100
AcDbAlignedDimension
 13
131.7311830254901
 23
61.53979473643428
 33
0.0
 14
49.73118302549034
 24
61.53979473643428
 34
0.0
100
AcDbRotatedDimension
  0
DIMENSION
  5
5A5
330
1F
100
AcDbEntity
  8
Bemaßungen_TC_020513_DIN_
100
AcDbDimension
  2
*D6
 10
191.5776494458655
 20
51.53979473643424
 30
0.0
 11
211.8763670447741
 21
55.91380565048609
 31
0.0
 70
    32
  1
40
 71
     5
 42
-1.0
 53
0.00013888888889
  3
ME10_DIM_13
100
AcDbAlignedDimension
 13
231.577649445866
 23
57.0397947364343
 33
0.0
 14
191.577649445866
 24
61.53979473643428
 34
0.0
100
AcDbRotatedDimension
  0
DIMENSION
  5
5B0
330
1F
100
AcDbEntity
  8
Bemaßungen_TC_020513_DIN_
100
AcDbDimension
  2
*D7
 10
185.5776494458643
 20
45.53979473643425
 30
0.0
 11
211.9587340297661
 21
49.91380565048609
 31
0.0
 70
    32
  1
52
 71
     5
 42
-1.0
 53
0.00013888888889
  3
ME10_DIM_14
100
AcDbAlignedDimension
 13
237.577649445864
 23
61.53979473643428
 33
0.0
 14
185.577649445864
 24
61.53979473643428
 34
0.0
100
AcDbRotatedDimension
  0
DIMENSION
  5
5BB
330
1F
100
AcDbEntity
  8
Bemaßungen_TC_020513_DIN_
100
AcDbDimension
  2
*D8
 10
257.5115994175876
 20
179.0397947364341
 30
0.0
 11
211.2828031493271
 21
183.4161930993265
 31
0.0
 70
    32
  1
93
 71
     5
 42
-1.0
 53
0.00013888888889
  3
ME10_DIM_15
100
AcDbAlignedDimension
 13
164.3276494458681
 23
169.0397947364345
 33
0.0
 14
257.511599417587
 24
94.53979473643429
 34
0.0
100
AcDbRotatedDimension
  0
DIMENSION
  5
5C6
330
1F
100
AcDbEntity
  8
Bemaßungen_TC_020513_DIN_
100
AcDbDimension
  2
*D9
 10
54.73118302548996
 20
179.5397947364343
 30
0.0
 11
91.12659230243406
 21
183.8541194294765
 31
0.0
 70
    32
  1
72
 71
     5
 42
-1.0
 53
0.00013888888889
  3
ME10_DIM_16
100
AcDbAlignedDimension
 13
126.7311830254901
 23
109.5397947364345
 33
0.0
 14
54.73118302549034
 24
109.5397947364345
 34
0.0
100
AcDbRotatedDimension
  0
DIMENSION
  5
5D1
330
1F
100
AcDbEntity
  8
Bemaßungen_TC_020513_DIN_
100
AcDbDimension
  2
*D10
 10
250.9331888613891
 20
63.5397947364343
 30
0.0
 11
246.6331888613891
 21
61.76435817436069
 31
0.0
 70
    32
  1
4
 71
     5
 42
-1.0
 53
90.0
  3
ME10_DIM_17
100
AcDbAlignedDimension
 13
237.577649445864
 23
59.5397947364343
 33
0.0
 14
237.577649445864
 24
63.53979473643428
 34
0.0
 50
90.0
100
AcDbRotatedDimension
  0
DIMENSION
  5
5DC
330
1F
100
AcDbEntity
  8
Bemaßungen_TC_020513_DIN_
100
AcDbDimension
  2
*D11
 10
38.23118302549032
 20
59.5397947364341
 30
0.0
 11
33.22449816873723
 21
119.7110430311135
 31
0.0
 70
    32
  1
117,5
 71
     5
 42
-1.0
 53
90.0
  3
ME10_DIM_18
100
AcDbAlignedDimension
 13
81.73118302549034
 23
177.0397947364345
 33
0.0
 14
54.23118302549034
 24
59.5397947364343
 34
0.0
 50
90.0
100
AcDbRotatedDimension
  0
DIMENSION
  5
5E7
330
1F
100
AcDbEntity
  8
Bemaßungen_TC_020513_DIN_
100
AcDbDimension
  2
*D12
 10
265.5776494458643
 20
112.5397947364343
 30
0.0
 11
261.2012510829721
 21
86.4029734540332
 31
0.0
 70
    32
  1
53
 71
     5
 42
-1.0
 53
90.0
  3
ME10_DIM_19
100
AcDbAlignedDimension
 13
237.577649445864
 23
59.5397947364343
 33
0.0
 14
230.7276494458681
 24
112.5397947364345
 34
0.0
 50
90.0
100
AcDbRotatedDimension
  0
ENDSEC
  0
SECTION
  2
OBJECTS
  0
DICTIONARY
  5
C
330
0
100
AcDbDictionary
281
     1
  3
ACAD_GROUP
350
D
  3
ACAD_LAYOUT
350
1A
  3
ACAD_MATERIAL
350
3B
  3
ACAD_MLEADERSTYLE
350
5EA
  3
ACAD_MLINESTYLE
350
17
  3
ACAD_PLOTSETTINGS
350
19
  3
ACAD_PLOTSTYLENAME
350
E
  3
ACAD_VISUALSTYLE
350
2A
  3
AcDbVariableDictionary
350
5E8
  0
DICTIONARY
  5
D
102
{ACAD_REACTORS
330
C
102
}
330
C
100
AcDbDictionary
281
     1
  0
DICTIONARY
  5
1A
102
{ACAD_REACTORS
330
C
102
}
330
C
100
AcDbDictionary
281
     1
  3
Layout1
350
1E
  3
Layout2
350
26
  3
Model
350
22
  0
DICTIONARY
  5
3B
102
{ACAD_REACTORS
330
C
102
}
330
C
100
AcDbDictionary
281
     1
  3
ByBlock
350
3D
  3
ByLayer
350
3C
  3
Global
350
3E
  0
DICTIONARY
  5
5EA
102
{ACAD_REACTORS
330
C
102
}
330
C
100
AcDbDictionary
281
     1
  0
DICTIONARY
  5
17
102
{ACAD_REACTORS
330
C
102
}
330
C
100
AcDbDictionary
281
     1
  3
Standard
350
18
  0
DICTIONARY
  5
19
102
{ACAD_REACTORS
330
C
102
}
330
C
100
AcDbDictionary
281
     1
  0
ACDBDICTIONARYWDFLT
  5
E
102
{ACAD_REACTORS
330
C
102
}
330
C
100
AcDbDictionary
281
     1
  3
Normal
350
F
100
AcDbDictionaryWithDefault
340
F
  0
DICTIONARY
  5
2A
102
{ACAD_REACTORS
330
C
102
}
330
C
100
AcDbDictionary
281
     1
  3
2dWireframe
350
2F
  3
3D Hidden
350
31
  3
3dWireframe
350
30
  3
Basic
350
32
  3
Brighten
350
36
  3
ColorChange
350
3A
  3
Conceptual
350
34
  3
Dim
350
35
  3
Facepattern
350
39
  3
Flat
350
2B
  3
FlatWithEdges
350
2C
  3
Gouraud
350
2D
  3
GouraudWithEdges
350
2E
  3
Linepattern
350
38
  3
Realistic
350
33
  3
Thicken
350
37
  0
DICTIONARY
  5
5E8
102
{ACAD_REACTORS
330
C
102
}
330
C
100
AcDbDictionary
281
     1
  3
DIMASSOC
350
5EB
  3
HIDETEXT
350
5EC
  0
LAYOUT
  5
1E
102
{ACAD_REACTORS
330
1A
102
}
330
1A
100
AcDbPlotSettings
  1

  2
none_device
  4

  6

 40
0.0
 41
0.0
 42
0.0
 43
0.0
 44
0.0
 45
0.0
 46
0.0
 47
0.0
 48
0.0
 49
0.0
140
0.0
141
0.0
142
1.0
143
1.0
 70
   688
 72
     0
 73
     0
 74
     5
  7

 75
    16
147
1.0
148
0.0
149
0.0
100
AcDbLayout
  1
Layout1
 70
     1
 71
     1
 10
0.0
 20
0.0
 11
12.0
 21
9.0
 12
0.0
 22
0.0
 32
0.0
 14
1.00000000000000E+20
 24
1.00000000000000E+20
 34
1.00000000000000E+20
 15
-1.00000000000000E+20
 25
-1.00000000000000E+20
 35
-1.00000000000000E+20
146
0.0
 13
0.0
 23
0.0
 33
0.0
 16
1.0
 26
0.0
 36
0.0
 17
0.0
 27
1.0
 37
0.0
 76
     0
330
1B
  0
LAYOUT
  5
26
102
{ACAD_REACTORS
330
1A
102
}
330
1A
100
AcDbPlotSettings
  1

  2
none_device
  4

  6

 40
0.0
 41
0.0
 42
0.0
 43
0.0
 44
0.0
 45
0.0
 46
0.0
 47
0.0
 48
0.0
 49
0.0
140
0.0
141
0.0
142
1.0
143
1.0
 70
   688
 72
     0
 73
     0
 74
     5
  7

 75
    16
147
1.0
148
0.0
149
0.0
100
AcDbLayout
  1
Layout2
 70
     1
 71
     2
 10
0.0
 20
0.0
 11
0.0
 21
0.0
 12
0.0
 22
0.0
 32
0.0
 14
0.0
 24
0.0
 34
0.0
 15
0.0
 25
0.0
 35
0.0
146
0.0
 13
0.0
 23
0.0
 33
0.0
 16
1.0
 26
0.0
 36
0.0
 17
0.0
 27
1.0
 37
0.0
 76
     0
330
23
  0
LAYOUT
  5
22
102
{ACAD_REACTORS
330
1A
102
}
330
1A
100
AcDbPlotSettings
  1

  2
none_device
  4

  6

 40
0.0
 41
0.0
 42
0.0
 43
0.0
 44
0.0
 45
0.0
 46
0.0
 47
0.0
 48
0.0
 49
0.0
140
0.0
141
0.0
142
1.0
143
1.0
 70
  1712
 72
     0
 73
     0
 74
     0
  7

 75
     0
147
1.0
148
0.0
149
0.0
100
AcDbLayout
  1
Model
 70
     1
 71
     0
 10
0.0
 20
0.0
 11
12.0
 21
9.0
 12
0.0
 22
0.0
 32
0.0
 14
0.0
 24
0.0
 34
0.0
 15
297.0000000000002
 25
210.0000000000001
 35
0.0
146
0.0
 13
0.0
 23
0.0
 33
0.0
 16
1.0
 26
0.0
 36
0.0
 17
0.0
 27
1.0
 37
0.0
 76
     0
330
1F
331
29
  0
MATERIAL
  5
3D
102
{ACAD_REACTORS
330
3B
102
}
102
{ACAD_XDICTIONARY
360
60F
102
}
330
3B
100
AcDbMaterial
  1
ByBlock
  0
MATERIAL
  5
3C
102
{ACAD_REACTORS
330
3B
102
}
102
{ACAD_XDICTIONARY
360
60D
102
}
330
3B
100
AcDbMaterial
  1
ByLayer
  0
MATERIAL
  5
3E
102
{ACAD_REACTORS
330
3B
102
}
102
{ACAD_XDICTIONARY
360
611
102
}
330
3B
100
AcDbMaterial
  1
Global
  0
MLINESTYLE
  5
18
102
{ACAD_REACTORS
330
17
102
}
330
17
100
AcDbMlineStyle
  2
Standard
 70
     0
  3

 62
   256
 51
90.0
 52
90.0
 71
     2
 49
0.5
 62
   256
  6
BYLAYER
 49
-0.5
 62
   256
  6
BYLAYER
  0
ACDBPLACEHOLDER
  5
F
102
{ACAD_REACTORS
330
E
102
}
330
E
  0
VISUALSTYLE
  5
2F
102
{ACAD_REACTORS
330
2A
102
}
102
{ACAD_XDICTIONARY
360
5F5
102
}
330
2A
100
AcDbVisualStyle
  2
2dWireframe
 70
     4
 71
     0
 72
     2
 73
     0
 90
        0
 40
-0.6
 41
-30.0
 62
     5
 63
     7
 74
     1
 91
        4
 64
     7
 65
   257
 75
     1
175
     1
 42
1.0
 92
        0
 66
   257
 43
1.0
 76
     1
 77
     6
 78
     2
 67
     7
 79
     5
170
     0
171
     0
290
     0
174
     0
 93
        1
 44
0.0
173
     0
291
     0
 45
0.0
1001
ACAD
1000
AcDbSavedByObjectVersion
1070
     0
  0
VISUALSTYLE
  5
31
102
{ACAD_REACTORS
330
2A
102
}
102
{ACAD_XDICTIONARY
360
5F9
102
}
330
2A
100
AcDbVisualStyle
  2
3D Hidden
 70
     6
 71
     1
 72
     2
 73
     2
 90
        0
 40
-0.6
 41
-30.0
 62
     5
 63
     7
 74
     2
 91
        2
 64
     7
 65
   257
 75
     2
175
     1
 42
40.0
 92
        0
 66
   257
 43
1.0
 76
     1
 77
     6
 78
     2
 67
     7
 79
     3
170
     0
171
     0
290
     0
174
     0
 93
        1
 44
0.0
173
     0
291
     0
 45
0.0
1001
ACAD
1000
AcDbSavedByObjectVersion
1070
     0
  0
VISUALSTYLE
  5
30
102
{ACAD_REACTORS
330
2A
102
}
102
{ACAD_XDICTIONARY
360
5F7
102
}
330
2A
100
AcDbVisualStyle
  2
3dWireframe
 70
     5
 71
     0
 72
     2
 73
     0
 90
        0
 40
-0.6
 41
-30.0
 62
     5
 63
     7
 74
     1
 91
        4
 64
     7
 65
   257
 75
     1
175
     1
 42
1.0
 92
        0
 66
   257
 43
1.0
 76
     1
 77
     6
 78
     2
 67
     7
 79
     5
170
     0
171
     0
290
     0
174
     0
 93
        1
 44
0.0
173
     0
291
     0
 45
0.0
1001
ACAD
1000
AcDbSavedByObjectVersion
1070
     0
  0
VISUALSTYLE
  5
32
102
{ACAD_REACTORS
330
2A
102
}
102
{ACAD_XDICTIONARY
360
5FB
102
}
330
2A
100
AcDbVisualStyle
  2
Basic
 70
     7
 71
     1
 72
     0
 73
     1
 90
        0
 40
-0.6
 41
-30.0
 62
     5
 63
     7
 74
     0
 91
        4
 64
     7
 65
   257
 75
     1
175
     1
 42
1.0
 92
        8
 66
     7
 43
1.0
 76
     1
 77
     6
 78
     2
 67
     7
 79
     5
170
     0
171
     0
290
     0
174
     0
 93
        1
 44
0.0
173
     0
291
     1
 45
0.0
1001
ACAD
1000
AcDbSavedByObjectVersion
1070
     0
  0
VISUALSTYLE
  5
36
102
{ACAD_REACTORS
330
2A
102
}
102
{ACAD_XDICTIONARY
360
603
102
}
330
2A
100
AcDbVisualStyle
  2
Brighten
 70
    12
 71
     2
 72
     2
 73
     0
 90
        0
 40
-0.6
 41
-30.0
 62
     5
 63
     7
 74
     1
 91
        4
 64
     7
 65
   257
 75
     1
175
     1
 42
1.0
 92
        8
 66
     7
 43
1.0
 76
     1
 77
     6
 78
     2
 67
     7
 79
     5
170
     0
171
     0
290
     0
174
     0
 93
        1
 44
50.0
173
     0
291
     1
 45
0.0
1001
ACAD
1000
AcDbSavedByObjectVersion
1070
     0
  0
VISUALSTYLE
  5
3A
102
{ACAD_REACTORS
330
2A
102
}
102
{ACAD_XDICTIONARY
360
60B
102
}
330
2A
100
AcDbVisualStyle
  2
ColorChange
 70
    16
 71
     2
 72
     2
 73
     3
 90
        0
 40
-0.6
 41
-30.0
 62
     5
 63
     8
 74
     1
 91
        4
 64
     7
 65
   257
 75
     1
175
     1
 42
1.0
 92
        8
 66
     8
 43
1.0
 76
     1
 77
     6
 78
     2
 67
     7
 79
     5
170
     0
171
     0
290
     0
174
     0
 93
        1
 44
0.0
173
     0
291
     1
 45
0.0
1001
ACAD
1000
AcDbSavedByObjectVersion
1070
     0
  0
VISUALSTYLE
  5
34
102
{ACAD_REACTORS
330
2A
102
}
102
{ACAD_XDICTIONARY
360
5FF
102
}
330
2A
100
AcDbVisualStyle
  2
Conceptual
 70
     9
 71
     3
 72
     2
 73
     0
 90
        0
 40
-0.6
 41
-30.0
 62
     5
 63
     7
 74
     2
 91
        2
 64
     7
 65
   257
 75
     1
175
     1
 42
40.0
 92
        8
 66
     7
 43
1.0
 76
     1
 77
     6
 78
     2
 67
     7
 79
     3
170
     0
171
     0
290
     0
174
     0
 93
        1
 44
0.0
173
     0
291
     0
 45
0.0
1001
ACAD
1000
AcDbSavedByObjectVersion
1070
     0
  0
VISUALSTYLE
  5
35
102
{ACAD_REACTORS
330
2A
102
}
102
{ACAD_XDICTIONARY
360
601
102
}
330
2A
100
AcDbVisualStyle
  2
Dim
 70
    11
 71
     2
 72
     2
 73
     0
 90
        0
 40
-0.6
 41
-30.0
 62
     5
 63
     7
 74
     1
 91
        4
 64
     7
 65
   257
 75
     1
175
     1
 42
1.0
 92
        8
 66
     7
 43
1.0
 76
     1
 77
     6
 78
     2
 67
     7
 79
     5
170
     0
171
     0
290
     0
174
     0
 93
        1
 44
-50.0
173
     0
291
     1
 45
0.0
1001
ACAD
1000
AcDbSavedByObjectVersion
1070
     0
  0
VISUALSTYLE
  5
39
102
{ACAD_REACTORS
330
2A
102
}
102
{ACAD_XDICTIONARY
360
609
102
}
330
2A
100
AcDbVisualStyle
  2
Facepattern
 70
    15
 71
     2
 72
     2
 73
     0
 90
        0
 40
-0.6
 41
-30.0
 62
     5
 63
     7
 74
     1
 91
        4
 64
     7
 65
   257
 75
     1
175
     1
 42
1.0
 92
        8
 66
     7
 43
1.0
 76
     1
 77
     6
 78
     2
 67
     7
 79
     5
170
     0
171
     0
290
     0
174
     0
 93
        1
 44
0.0
173
     0
291
     1
 45
0.0
1001
ACAD
1000
AcDbSavedByObjectVersion
1070
     0
  0
VISUALSTYLE
  5
2B
102
{ACAD_REACTORS
330
2A
102
}
102
{ACAD_XDICTIONARY
360
5ED
102
}
330
2A
100
AcDbVisualStyle
  2
Flat
 70
     0
 71
     2
 72
     1
 73
     1
 90
        2
 40
-0.6
 41
30.0
 62
     5
 63
     7
 74
     0
 91
        4
 64
     7
 65
   257
 75
     1
175
     1
 42
1.0
 92
        8
 66
     7
 43
1.0
 76
     1
 77
     6
 78
     2
 67
     7
 79
     5
170
     0
171
     0
290
     0
174
     0
 93
       13
 44
0.0
173
     0
291
     1
 45
0.0
1001
ACAD
1000
AcDbSavedByObjectVersion
1070
     0
  0
VISUALSTYLE
  5
2C
102
{ACAD_REACTORS
330
2A
102
}
102
{ACAD_XDICTIONARY
360
5EF
102
}
330
2A
100
AcDbVisualStyle
  2
FlatWithEdges
 70
     1
 71
     2
 72
     1
 73
     1
 90
        2
 40
-0.6
 41
30.0
 62
     5
 63
     7
 74
     1
 91
        4
 64
     7
 65
   257
 75
     1
175
     1
 42
1.0
 92
        0
 66
   257
 43
1.0
 76
     1
 77
     6
 78
     2
 67
     7
 79
     5
170
     0
171
     0
290
     0
174
     0
 93
       13
 44
0.0
173
     0
291
     1
 45
0.0
1001
ACAD
1000
AcDbSavedByObjectVersion
1070
     0
  0
VISUALSTYLE
  5
2D
102
{ACAD_REACTORS
330
2A
102
}
102
{ACAD_XDICTIONARY
360
5F1
102
}
330
2A
100
AcDbVisualStyle
  2
Gouraud
 70
     2
 71
     2
 72
     2
 73
     1
 90
        2
 40
-0.6
 41
30.0
 62
     5
 63
     7
 74
     0
 91
        4
 64
     7
 65
   257
 75
     1
175
     1
 42
1.0
 92
        0
 66
     7
 43
1.0
 76
     1
 77
     6
 78
     2
 67
     7
 79
     5
170
     0
171
     0
290
     0
174
     0
 93
       13
 44
0.0
173
     0
291
     1
 45
0.0
1001
ACAD
1000
AcDbSavedByObjectVersion
1070
     0
  0
VISUALSTYLE
  5
2E
102
{ACAD_REACTORS
330
2A
102
}
102
{ACAD_XDICTIONARY
360
5F3
102
}
330
2A
100
AcDbVisualStyle
  2
GouraudWithEdges
 70
     3
 71
     2
 72
     2
 73
     1
 90
        2
 40
-0.6
 41
30.0
 62
     5
 63
     7
 74
     1
 91
        4
 64
     7
 65
   257
 75
     1
175
     1
 42
1.0
 92
        0
 66
   257
 43
1.0
 76
     1
 77
     6
 78
     2
 67
     7
 79
     5
170
     0
171
     0
290
     0
174
     0
 93
       13
 44
0.0
173
     0
291
     1
 45
0.0
1001
ACAD
1000
AcDbSavedByObjectVersion
1070
     0
  0
VISUALSTYLE
  5
38
102
{ACAD_REACTORS
330
2A
102
}
102
{ACAD_XDICTIONARY
360
607
102
}
330
2A
100
AcDbVisualStyle
  2
Linepattern
 70
    14
 71
     2
 72
     2
 73
     0
 90
        0
 40
-0.6
 41
-30.0
 62
     5
 63
     7
 74
     1
 91
        4
 64
     7
 65
   257
 75
     7
175
     7
 42
1.0
 92
        8
 66
     7
 43
1.0
 76
     1
 77
     6
 78
     2
 67
     7
 79
     5
170
     0
171
     0
290
     0
174
     0
 93
        1
 44
0.0
173
     0
291
     1
 45
0.0
1001
ACAD
1000
AcDbSavedByObjectVersion
1070
     0
  0
VISUALSTYLE
  5
33
102
{ACAD_REACTORS
330
2A
102
}
102
{ACAD_XDICTIONARY
360
5FD
102
}
330
2A
100
AcDbVisualStyle
  2
Realistic
 70
     8
 71
     2
 72
     2
 73
     0
 90
        0
 40
-0.6
 41
-30.0
 62
     5
 63
     7
 74
     1
 91
        0
 64
     7
 65
   257
 75
     1
175
     1
 42
1.0
 92
        8
 66
     8
 43
1.0
 76
     1
 77
     6
 78
     2
 67
     7
 79
     5
170
     0
171
     0
290
     0
174
     0
 93
       13
 44
0.0
173
     0
291
     0
 45
0.0
1001
ACAD
1000
AcDbSavedByObjectVersion
1070
     0
  0
VISUALSTYLE
  5
37
102
{ACAD_REACTORS
330
2A
102
}
102
{ACAD_XDICTIONARY
360
605
102
}
330
2A
100
AcDbVisualStyle
  2
Thicken
 70
    13
 71
     2
 72
     2
 73
     0
 90
        0
 40
-0.6
 41
-30.0
 62
     5
 63
     7
 74
     1
 91
        4
 64
     7
 65
   257
 75
     1
175
     1
 42
1.0
 92
       12
 66
     7
 43
1.0
 76
     1
 77
     6
 78
     2
 67
     7
 79
     5
170
     0
171
     0
290
     0
174
     0
 93
        1
 44
0.0
173
     0
291
     1
 45
0.0
1001
ACAD
1000
AcDbSavedByObjectVersion
1070
     0
  0
DICTIONARYVAR
  5
5EB
102
{ACAD_REACTORS
330
5E8
102
}
330
5E8
100
DictionaryVariables
280
     0
  1
2
  0
DICTIONARYVAR
  5
5EC
102
{ACAD_REACTORS
330
5E8
102
}
330
5E8
100
DictionaryVariables
280
     0
  1
1
  0
DICTIONARY
  5
60F
330
3D
100
AcDbDictionary
280
     1
281
     1
  3
ACAD_XREC_ROUNDTRIP
360
610
  0
DICTIONARY
  5
60D
330
3C
100
AcDbDictionary
280
     1
281
     1
  3
ACAD_XREC_ROUNDTRIP
360
60E
  0
DICTIONARY
  5
611
330
3E
100
AcDbDictionary
280
     1
281
     1
  3
ACAD_XREC_ROUNDTRIP
360
612
  0
DICTIONARY
  5
5F5
330
2F
100
AcDbDictionary
280
     1
281
     1
  3
ACAD_XREC_ROUNDTRIP
360
5F6
  0
DICTIONARY
  5
5F9
330
31
100
AcDbDictionary
280
     1
281
     1
  3
ACAD_XREC_ROUNDTRIP
360
5FA
  0
DICTIONARY
  5
5F7
330
30
100
AcDbDictionary
280
     1
281
     1
  3
ACAD_XREC_ROUNDTRIP
360
5F8
  0
DICTIONARY
  5
5FB
330
32
100
AcDbDictionary
280
     1
281
     1
  3
ACAD_XREC_ROUNDTRIP
360
5FC
  0
DICTIONARY
  5
603
330
36
100
AcDbDictionary
280
     1
281
     1
  3
ACAD_XREC_ROUNDTRIP
360
604
  0
DICTIONARY
  5
60B
330
3A
100
AcDbDictionary
280
     1
281
     1
  3
ACAD_XREC_ROUNDTRIP
360
60C
  0
DICTIONARY
  5
5FF
330
34
100
AcDbDictionary
280
     1
281
     1
  3
ACAD_XREC_ROUNDTRIP
360
600
  0
DICTIONARY
  5
601
330
35
100
AcDbDictionary
280
     1
281
     1
  3
ACAD_XREC_ROUNDTRIP
360
602
  0
DICTIONARY
  5
609
330
39
100
AcDbDictionary
280
     1
281
     1
  3
ACAD_XREC_ROUNDTRIP
360
60A
  0
DICTIONARY
  5
5ED
330
2B
100
AcDbDictionary
280
     1
281
     1
  3
ACAD_XREC_ROUNDTRIP
360
5EE
  0
DICTIONARY
  5
5EF
330
2C
100
AcDbDictionary
280
     1
281
     1
  3
ACAD_XREC_ROUNDTRIP
360
5F0
  0
DICTIONARY
  5
5F1
330
2D
100
AcDbDictionary
280
     1
281
     1
  3
ACAD_XREC_ROUNDTRIP
360
5F2
  0
DICTIONARY
  5
5F3
330
2E
100
AcDbDictionary
280
     1
281
     1
  3
ACAD_XREC_ROUNDTRIP
360
5F4
  0
DICTIONARY
  5
607
330
38
100
AcDbDictionary
280
     1
281
     1
  3
ACAD_XREC_ROUNDTRIP
360
608
  0
DICTIONARY
  5
5FD
330
33
100
AcDbDictionary
280
     1
281
     1
  3
ACAD_XREC_ROUNDTRIP
360
5FE
  0
DICTIONARY
  5
605
330
37
100
AcDbDictionary
280
     1
281
     1
  3
ACAD_XREC_ROUNDTRIP
360
606
  0
XRECORD
  5
610
102
{ACAD_REACTORS
330
60F
102
}
330
60F
100
AcDbXrecord
280
     1
102
MATERIAL
148
0.0
149
0.0
149
0.0
 93
        0
 94
      127
282
     0
 72
     1
 77
     1
171
     1
175
     1
179
     1
273
     0
  0
XRECORD
  5
60E
102
{ACAD_REACTORS
330
60D
102
}
330
60D
100
AcDbXrecord
280
     1
102
MATERIAL
148
0.0
149
0.0
149
0.0
 93
        0
 94
      127
282
     0
 72
     1
 77
     1
171
     1
175
     1
179
     1
273
     0
  0
XRECORD
  5
612
102
{ACAD_REACTORS
330
611
102
}
330
611
100
AcDbXrecord
280
     1
102
MATERIAL
148
0.0
149
0.0
149
0.0
 93
        0
 94
      127
282
     0
 72
     1
 77
     1
171
     1
175
     1
179
     1
273
     0
  0
XRECORD
  5
5F6
102
{ACAD_REACTORS
330
5F5
102
}
330
5F5
100
AcDbXrecord
280
     1
102
RTVSPropertyOp0
 70
     1
102
RTVSPropertyOp1
 70
     1
102
RTVSPropertyOp2
 70
     1
102
RTVSPropertyOp3
 70
     1
102
RTVSPropertyOp4
 70
     1
102
RTVSPropertyOp5
 70
     1
102
RTVSPropertyOp6
 70
     1
102
RTVSPropertyOp7
 70
     1
102
RTVSPropertyOp8
 70
     1
102
RTVSPropertyOp9
 70
     1
102
RTVSPropertyOp10
 70
     1
102
RTVSPropertyOp11
 70
     1
102
RTVSPropertyOp12
 70
     1
102
RTVSPropertyOp13
 70
     1
102
RTVSPropertyOp14
 70
     1
102
RTVSPropertyOp15
 70
     1
102
RTVSPropertyOp16
 70
     1
102
RTVSPropertyOp17
 70
     1
102
RTVSPropertyOp18
 70
     1
102
RTVSPropertyOp19
 70
     1
102
RTVSPropertyOp20
 70
     1
102
RTVSPropertyOp21
 70
     1
102
RTVSPropertyOp22
 70
     1
102
RTVSPropertyOp23
 70
     1
102
RTVSPropertyOp24
 70
     1
102
RTVSPropertyOp25
 70
     1
102
RTVSPropertyOp26
 70
     1
102
RTVSPropertyOp27
 70
     1
102
RTVSPropertyOp28
 70
     1
102
RTVSPropertyOp29
 70
     1
102
RTVSPropertyOp30
 70
     1
102
RTVSPropertyOp31
 70
     1
102
RTVSPropertyOp32
 70
     1
  0
XRECORD
  5
5FA
102
{ACAD_REACTORS
330
5F9
102
}
330
5F9
100
AcDbXrecord
280
     1
102
RTVSPropertyOp0
 70
     1
102
RTVSPropertyOp1
 70
     1
102
RTVSPropertyOp2
 70
     1
102
RTVSPropertyOp3
 70
     1
102
RTVSPropertyOp4
 70
     1
102
RTVSPropertyOp5
 70
     1
102
RTVSPropertyOp6
 70
     1
102
RTVSPropertyOp7
 70
     1
102
RTVSPropertyOp8
 70
     1
102
RTVSPropertyOp9
 70
     1
102
RTVSPropertyOp10
 70
     1
102
RTVSPropertyOp11
 70
     1
102
RTVSPropertyOp12
 70
     1
102
RTVSPropertyOp13
 70
     1
102
RTVSPropertyOp14
 70
     1
102
RTVSPropertyOp15
 70
     1
102
RTVSPropertyOp16
 70
     1
102
RTVSPropertyOp17
 70
     1
102
RTVSPropertyOp18
 70
     1
102
RTVSPropertyOp19
 70
     1
102
RTVSPropertyOp20
 70
     1
102
RTVSPropertyOp21
 70
     1
102
RTVSPropertyOp22
 70
     1
102
RTVSPropertyOp23
 70
     1
102
RTVSPropertyOp24
 70
     1
102
RTVSPropertyOp25
 70
     1
102
RTVSPropertyOp26
 70
     1
102
RTVSPropertyOp27
 70
     1
102
RTVSPropertyOp28
 70
     1
102
RTVSPropertyOp29
 70
     1
102
RTVSPropertyOp30
 70
     1
102
RTVSPropertyOp31
 70
     1
102
RTVSPropertyOp32
 70
     1
  0
XRECORD
  5
5F8
102
{ACAD_REACTORS
330
5F7
102
}
330
5F7
100
AcDbXrecord
280
     1
102
RTVSPropertyOp0
 70
     1
102
RTVSPropertyOp1
 70
     1
102
RTVSPropertyOp2
 70
     1
102
RTVSPropertyOp3
 70
     1
102
RTVSPropertyOp4
 70
     1
102
RTVSPropertyOp5
 70
     1
102
RTVSPropertyOp6
 70
     1
102
RTVSPropertyOp7
 70
     1
102
RTVSPropertyOp8
 70
     1
102
RTVSPropertyOp9
 70
     1
102
RTVSPropertyOp10
 70
     1
102
RTVSPropertyOp11
 70
     1
102
RTVSPropertyOp12
 70
     1
102
RTVSPropertyOp13
 70
     1
102
RTVSPropertyOp14
 70
     1
102
RTVSPropertyOp15
 70
     1
102
RTVSPropertyOp16
 70
     1
102
RTVSPropertyOp17
 70
     1
102
RTVSPropertyOp18
 70
     1
102
RTVSPropertyOp19
 70
     1
102
RTVSPropertyOp20
 70
     1
102
RTVSPropertyOp21
 70
     1
102
RTVSPropertyOp22
 70
     1
102
RTVSPropertyOp23
 70
     1
102
RTVSPropertyOp24
 70
     1
102
RTVSPropertyOp25
 70
     1
102
RTVSPropertyOp26
 70
     1
102
RTVSPropertyOp27
 70
     1
102
RTVSPropertyOp28
 70
     1
102
RTVSPropertyOp29
 70
     1
102
RTVSPropertyOp30
 70
     1
102
RTVSPropertyOp31
 70
     1
102
RTVSPropertyOp32
 70
     1
  0
XRECORD
  5
5FC
102
{ACAD_REACTORS
330
5FB
102
}
330
5FB
100
AcDbXrecord
280
     1
102
RTVSPropertyOp0
 70
     1
102
RTVSPropertyOp1
 70
     1
102
RTVSPropertyOp2
 70
     1
102
RTVSPropertyOp3
 70
     1
102
RTVSPropertyOp4
 70
     1
102
RTVSPropertyOp5
 70
     1
102
RTVSPropertyOp6
 70
     1
102
RTVSPropertyOp7
 70
     1
102
RTVSPropertyOp8
 70
     1
102
RTVSPropertyOp9
 70
     1
102
RTVSPropertyOp10
 70
     1
102
RTVSPropertyOp11
 70
     1
102
RTVSPropertyOp12
 70
     1
102
RTVSPropertyOp13
 70
     1
102
RTVSPropertyOp14
 70
     1
102
RTVSPropertyOp15
 70
     1
102
RTVSPropertyOp16
 70
     1
102
RTVSPropertyOp17
 70
     1
102
RTVSPropertyOp18
 70
     1
102
RTVSPropertyOp19
 70
     1
102
RTVSPropertyOp20
 70
     1
102
RTVSPropertyOp21
 70
     1
102
RTVSPropertyOp22
 70
     1
102
RTVSPropertyOp23
 70
     1
102
RTVSPropertyOp24
 70
     1
102
RTVSPropertyOp25
 70
     1
102
RTVSPropertyOp26
 70
     1
102
RTVSPropertyOp27
 70
     1
102
RTVSPropertyOp28
 70
     1
102
RTVSPropertyOp29
 70
     1
102
RTVSPropertyOp30
 70
     1
102
RTVSPropertyOp31
 70
     1
102
RTVSPropertyOp32
 70
     1
  0
XRECORD
  5
604
102
{ACAD_REACTORS
330
603
102
}
330
603
100
AcDbXrecord
280
     1
102
RTVSPropertyOp0
 70
     1
102
RTVSPropertyOp1
 70
     1
102
RTVSPropertyOp2
 70
     1
102
RTVSPropertyOp3
 70
     1
102
RTVSPropertyOp4
 70
     1
102
RTVSPropertyOp5
 70
     1
102
RTVSPropertyOp6
 70
     1
102
RTVSPropertyOp7
 70
     1
102
RTVSPropertyOp8
 70
     1
102
RTVSPropertyOp9
 70
     1
102
RTVSPropertyOp10
 70
     1
102
RTVSPropertyOp11
 70
     1
102
RTVSPropertyOp12
 70
     1
102
RTVSPropertyOp13
 70
     1
102
RTVSPropertyOp14
 70
     1
102
RTVSPropertyOp15
 70
     1
102
RTVSPropertyOp16
 70
     1
102
RTVSPropertyOp17
 70
     1
102
RTVSPropertyOp18
 70
     1
102
RTVSPropertyOp19
 70
     1
102
RTVSPropertyOp20
 70
     1
102
RTVSPropertyOp21
 70
     1
102
RTVSPropertyOp22
 70
     1
102
RTVSPropertyOp23
 70
     1
102
RTVSPropertyOp24
 70
     1
102
RTVSPropertyOp25
 70
     1
102
RTVSPropertyOp26
 70
     1
102
RTVSPropertyOp27
 70
     1
102
RTVSPropertyOp28
 70
     1
102
RTVSPropertyOp29
 70
     1
102
RTVSPropertyOp30
 70
     1
102
RTVSPropertyOp31
 70
     1
102
RTVSPropertyOp32
 70
     1
  0
XRECORD
  5
60C
102
{ACAD_REACTORS
330
60B
102
}
330
60B
100
AcDbXrecord
280
     1
102
RTVSPropertyOp0
 70
     1
102
RTVSPropertyOp1
 70
     1
102
RTVSPropertyOp2
 70
     1
102
RTVSPropertyOp3
 70
     1
102
RTVSPropertyOp4
 70
     1
102
RTVSPropertyOp5
 70
     1
102
RTVSPropertyOp6
 70
     1
102
RTVSPropertyOp7
 70
     1
102
RTVSPropertyOp8
 70
     1
102
RTVSPropertyOp9
 70
     1
102
RTVSPropertyOp10
 70
     1
102
RTVSPropertyOp11
 70
     1
102
RTVSPropertyOp12
 70
     1
102
RTVSPropertyOp13
 70
     1
102
RTVSPropertyOp14
 70
     1
102
RTVSPropertyOp15
 70
     1
102
RTVSPropertyOp16
 70
     1
102
RTVSPropertyOp17
 70
     1
102
RTVSPropertyOp18
 70
     1
102
RTVSPropertyOp19
 70
     1
102
RTVSPropertyOp20
 70
     1
102
RTVSPropertyOp21
 70
     1
102
RTVSPropertyOp22
 70
     1
102
RTVSPropertyOp23
 70
     1
102
RTVSPropertyOp24
 70
     1
102
RTVSPropertyOp25
 70
     1
102
RTVSPropertyOp26
 70
     1
102
RTVSPropertyOp27
 70
     1
102
RTVSPropertyOp28
 70
     1
102
RTVSPropertyOp29
 70
     1
102
RTVSPropertyOp30
 70
     1
102
RTVSPropertyOp31
 70
     1
102
RTVSPropertyOp32
 70
     1
  0
XRECORD
  5
600
102
{ACAD_REACTORS
330
5FF
102
}
330
5FF
100
AcDbXrecord
280
     1
102
RTVSPropertyOp0
 70
     1
102
RTVSPropertyOp1
 70
     1
102
RTVSPropertyOp2
 70
     1
102
RTVSPropertyOp3
 70
     1
102
RTVSPropertyOp4
 70
     1
102
RTVSPropertyOp5
 70
     1
102
RTVSPropertyOp6
 70
     1
102
RTVSPropertyOp7
 70
     1
102
RTVSPropertyOp8
 70
     1
102
RTVSPropertyOp9
 70
     1
102
RTVSPropertyOp10
 70
     1
102
RTVSPropertyOp11
 70
     1
102
RTVSPropertyOp12
 70
     1
102
RTVSPropertyOp13
 70
     1
102
RTVSPropertyOp14
 70
     1
102
RTVSPropertyOp15
 70
     1
102
RTVSPropertyOp16
 70
     1
102
RTVSPropertyOp17
 70
     1
102
RTVSPropertyOp18
 70
     1
102
RTVSPropertyOp19
 70
     1
102
RTVSPropertyOp20
 70
     1
102
RTVSPropertyOp21
 70
     1
102
RTVSPropertyOp22
 70
     1
102
RTVSPropertyOp23
 70
     1
102
RTVSPropertyOp24
 70
     1
102
RTVSPropertyOp25
 70
     1
102
RTVSPropertyOp26
 70
     1
102
RTVSPropertyOp27
 70
     1
102
RTVSPropertyOp28
 70
     1
102
RTVSPropertyOp29
 70
     1
102
RTVSPropertyOp30
 70
     1
102
RTVSPropertyOp31
 70
     1
102
RTVSPropertyOp32
 70
     1
  0
XRECORD
  5
602
102
{ACAD_REACTORS
330
601
102
}
330
601
100
AcDbXrecord
280
     1
102
RTVSPropertyOp0
 70
     1
102
RTVSPropertyOp1
 70
     1
102
RTVSPropertyOp2
 70
     1
102
RTVSPropertyOp3
 70
     1
102
RTVSPropertyOp4
 70
     1
102
RTVSPropertyOp5
 70
     1
102
RTVSPropertyOp6
 70
     1
102
RTVSPropertyOp7
 70
     1
102
RTVSPropertyOp8
 70
     1
102
RTVSPropertyOp9
 70
     1
102
RTVSPropertyOp10
 70
     1
102
RTVSPropertyOp11
 70
     1
102
RTVSPropertyOp12
 70
     1
102
RTVSPropertyOp13
 70
     1
102
RTVSPropertyOp14
 70
     1
102
RTVSPropertyOp15
 70
     1
102
RTVSPropertyOp16
 70
     1
102
RTVSPropertyOp17
 70
     1
102
RTVSPropertyOp18
 70
     1
102
RTVSPropertyOp19
 70
     1
102
RTVSPropertyOp20
 70
     1
102
RTVSPropertyOp21
 70
     1
102
RTVSPropertyOp22
 70
     1
102
RTVSPropertyOp23
 70
     1
102
RTVSPropertyOp24
 70
     1
102
RTVSPropertyOp25
 70
     1
102
RTVSPropertyOp26
 70
     1
102
RTVSPropertyOp27
 70
     1
102
RTVSPropertyOp28
 70
     1
102
RTVSPropertyOp29
 70
     1
102
RTVSPropertyOp30
 70
     1
102
RTVSPropertyOp31
 70
     1
102
RTVSPropertyOp32
 70
     1
  0
XRECORD
  5
60A
102
{ACAD_REACTORS
330
609
102
}
330
609
100
AcDbXrecord
280
     1
102
RTVSPropertyOp0
 70
     1
102
RTVSPropertyOp1
 70
     1
102
RTVSPropertyOp2
 70
     1
102
RTVSPropertyOp3
 70
     1
102
RTVSPropertyOp4
 70
     1
102
RTVSPropertyOp5
 70
     1
102
RTVSPropertyOp6
 70
     1
102
RTVSPropertyOp7
 70
     1
102
RTVSPropertyOp8
 70
     1
102
RTVSPropertyOp9
 70
     1
102
RTVSPropertyOp10
 70
     1
102
RTVSPropertyOp11
 70
     1
102
RTVSPropertyOp12
 70
     1
102
RTVSPropertyOp13
 70
     1
102
RTVSPropertyOp14
 70
     1
102
RTVSPropertyOp15
 70
     1
102
RTVSPropertyOp16
 70
     1
102
RTVSPropertyOp17
 70
     1
102
RTVSPropertyOp18
 70
     1
102
RTVSPropertyOp19
 70
     1
102
RTVSPropertyOp20
 70
     1
102
RTVSPropertyOp21
 70
     1
102
RTVSPropertyOp22
 70
     1
102
RTVSPropertyOp23
 70
     1
102
RTVSPropertyOp24
 70
     1
102
RTVSPropertyOp25
 70
     1
102
RTVSPropertyOp26
 70
     1
102
RTVSPropertyOp27
 70
     1
102
RTVSPropertyOp28
 70
     1
102
RTVSPropertyOp29
 70
     1
102
RTVSPropertyOp30
 70
     1
102
RTVSPropertyOp31
 70
     1
102
RTVSPropertyOp32
 70
     1
  0
XRECORD
  5
5EE
102
{ACAD_REACTORS
330
5ED
102
}
330
5ED
100
AcDbXrecord
280
     1
102
RTVSPropertyOp0
 70
     1
102
RTVSPropertyOp1
 70
     1
102
RTVSPropertyOp2
 70
     1
102
RTVSPropertyOp3
 70
     1
102
RTVSPropertyOp4
 70
     1
102
RTVSPropertyOp5
 70
     1
102
RTVSPropertyOp6
 70
     1
102
RTVSPropertyOp7
 70
     1
102
RTVSPropertyOp8
 70
     1
102
RTVSPropertyOp9
 70
     1
102
RTVSPropertyOp10
 70
     1
102
RTVSPropertyOp11
 70
     1
102
RTVSPropertyOp12
 70
     1
102
RTVSPropertyOp13
 70
     1
102
RTVSPropertyOp14
 70
     1
102
RTVSPropertyOp15
 70
     1
102
RTVSPropertyOp16
 70
     1
102
RTVSPropertyOp17
 70
     1
102
RTVSPropertyOp18
 70
     1
102
RTVSPropertyOp19
 70
     1
102
RTVSPropertyOp20
 70
     1
102
RTVSPropertyOp21
 70
     1
102
RTVSPropertyOp22
 70
     1
102
RTVSPropertyOp23
 70
     1
102
RTVSPropertyOp24
 70
     1
102
RTVSPropertyOp25
 70
     1
102
RTVSPropertyOp26
 70
     1
102
RTVSPropertyOp27
 70
     1
102
RTVSPropertyOp28
 70
     1
102
RTVSPropertyOp29
 70
     1
102
RTVSPropertyOp30
 70
     1
102
RTVSPropertyOp31
 70
     1
102
RTVSPropertyOp32
 70
     1
  0
XRECORD
  5
5F0
102
{ACAD_REACTORS
330
5EF
102
}
330
5EF
100
AcDbXrecord
280
     1
102
RTVSPropertyOp0
 70
     1
102
RTVSPropertyOp1
 70
     1
102
RTVSPropertyOp2
 70
     1
102
RTVSPropertyOp3
 70
     1
102
RTVSPropertyOp4
 70
     1
102
RTVSPropertyOp5
 70
     1
102
RTVSPropertyOp6
 70
     1
102
RTVSPropertyOp7
 70
     1
102
RTVSPropertyOp8
 70
     1
102
RTVSPropertyOp9
 70
     1
102
RTVSPropertyOp10
 70
     1
102
RTVSPropertyOp11
 70
     1
102
RTVSPropertyOp12
 70
     1
102
RTVSPropertyOp13
 70
     1
102
RTVSPropertyOp14
 70
     1
102
RTVSPropertyOp15
 70
     1
102
RTVSPropertyOp16
 70
     1
102
RTVSPropertyOp17
 70
     1
102
RTVSPropertyOp18
 70
     1
102
RTVSPropertyOp19
 70
     1
102
RTVSPropertyOp20
 70
     1
102
RTVSPropertyOp21
 70
     1
102
RTVSPropertyOp22
 70
     1
102
RTVSPropertyOp23
 70
     1
102
RTVSPropertyOp24
 70
     1
102
RTVSPropertyOp25
 70
     1
102
RTVSPropertyOp26
 70
     1
102
RTVSPropertyOp27
 70
     1
102
RTVSPropertyOp28
 70
     1
102
RTVSPropertyOp29
 70
     1
102
RTVSPropertyOp30
 70
     1
102
RTVSPropertyOp31
 70
     1
102
RTVSPropertyOp32
 70
     1
  0
XRECORD
  5
5F2
102
{ACAD_REACTORS
330
5F1
102
}
330
5F1
100
AcDbXrecord
280
     1
102
RTVSPropertyOp0
 70
     1
102
RTVSPropertyOp1
 70
     1
102
RTVSPropertyOp2
 70
     1
102
RTVSPropertyOp3
 70
     1
102
RTVSPropertyOp4
 70
     1
102
RTVSPropertyOp5
 70
     1
102
RTVSPropertyOp6
 70
     1
102
RTVSPropertyOp7
 70
     1
102
RTVSPropertyOp8
 70
     1
102
RTVSPropertyOp9
 70
     1
102
RTVSPropertyOp10
 70
     1
102
RTVSPropertyOp11
 70
     1
102
RTVSPropertyOp12
 70
     1
102
RTVSPropertyOp13
 70
     1
102
RTVSPropertyOp14
 70
     1
102
RTVSPropertyOp15
 70
     1
102
RTVSPropertyOp16
 70
     1
102
RTVSPropertyOp17
 70
     1
102
RTVSPropertyOp18
 70
     1
102
RTVSPropertyOp19
 70
     1
102
RTVSPropertyOp20
 70
     1
102
RTVSPropertyOp21
 70
     1
102
RTVSPropertyOp22
 70
     1
102
RTVSPropertyOp23
 70
     1
102
RTVSPropertyOp24
 70
     1
102
RTVSPropertyOp25
 70
     1
102
RTVSPropertyOp26
 70
     1
102
RTVSPropertyOp27
 70
     1
102
RTVSPropertyOp28
 70
     1
102
RTVSPropertyOp29
 70
     1
102
RTVSPropertyOp30
 70
     1
102
RTVSPropertyOp31
 70
     1
102
RTVSPropertyOp32
 70
     1
  0
XRECORD
  5
5F4
102
{ACAD_REACTORS
330
5F3
102
}
330
5F3
100
AcDbXrecord
280
     1
102
RTVSPropertyOp0
 70
     1
102
RTVSPropertyOp1
 70
     1
102
RTVSPropertyOp2
 70
     1
102
RTVSPropertyOp3
 70
     1
102
RTVSPropertyOp4
 70
     1
102
RTVSPropertyOp5
 70
     1
102
RTVSPropertyOp6
 70
     1
102
RTVSPropertyOp7
 70
     1
102
RTVSPropertyOp8
 70
     1
102
RTVSPropertyOp9
 70
     1
102
RTVSPropertyOp10
 70
     1
102
RTVSPropertyOp11
 70
     1
102
RTVSPropertyOp12
 70
     1
102
RTVSPropertyOp13
 70
     1
102
RTVSPropertyOp14
 70
     1
102
RTVSPropertyOp15
 70
     1
102
RTVSPropertyOp16
 70
     1
102
RTVSPropertyOp17
 70
     1
102
RTVSPropertyOp18
 70
     1
102
RTVSPropertyOp19
 70
     1
102
RTVSPropertyOp20
 70
     1
102
RTVSPropertyOp21
 70
     1
102
RTVSPropertyOp22
 70
     1
102
RTVSPropertyOp23
 70
     1
102
RTVSPropertyOp24
 70
     1
102
RTVSPropertyOp25
 70
     1
102
RTVSPropertyOp26
 70
     1
102
RTVSPropertyOp27
 70
     1
102
RTVSPropertyOp28
 70
     1
102
RTVSPropertyOp29
 70
     1
102
RTVSPropertyOp30
 70
     1
102
RTVSPropertyOp31
 70
     1
102
RTVSPropertyOp32
 70
     1
  0
XRECORD
  5
608
102
{ACAD_REACTORS
330
607
102
}
330
607
100
AcDbXrecord
280
     1
102
RTVSPropertyOp0
 70
     1
102
RTVSPropertyOp1
 70
     1
102
RTVSPropertyOp2
 70
     1
102
RTVSPropertyOp3
 70
     1
102
RTVSPropertyOp4
 70
     1
102
RTVSPropertyOp5
 70
     1
102
RTVSPropertyOp6
 70
     1
102
RTVSPropertyOp7
 70
     1
102
RTVSPropertyOp8
 70
     1
102
RTVSPropertyOp9
 70
     1
102
RTVSPropertyOp10
 70
     1
102
RTVSPropertyOp11
 70
     1
102
RTVSPropertyOp12
 70
     1
102
RTVSPropertyOp13
 70
     1
102
RTVSPropertyOp14
 70
     1
102
RTVSPropertyOp15
 70
     1
102
RTVSPropertyOp16
 70
     1
102
RTVSPropertyOp17
 70
     1
102
RTVSPropertyOp18
 70
     1
102
RTVSPropertyOp19
 70
     1
102
RTVSPropertyOp20
 70
     1
102
RTVSPropertyOp21
 70
     1
102
RTVSPropertyOp22
 70
     1
102
RTVSPropertyOp23
 70
     1
102
RTVSPropertyOp24
 70
     1
102
RTVSPropertyOp25
 70
     1
102
RTVSPropertyOp26
 70
     1
102
RTVSPropertyOp27
 70
     1
102
RTVSPropertyOp28
 70
     1
102
RTVSPropertyOp29
 70
     1
102
RTVSPropertyOp30
 70
     1
102
RTVSPropertyOp31
 70
     1
102
RTVSPropertyOp32
 70
     1
  0
XRECORD
  5
5FE
102
{ACAD_REACTORS
330
5FD
102
}
330
5FD
100
AcDbXrecord
280
     1
102
RTVSPropertyOp0
 70
     1
102
RTVSPropertyOp1
 70
     1
102
RTVSPropertyOp2
 70
     1
102
RTVSPropertyOp3
 70
     1
102
RTVSPropertyOp4
 70
     1
102
RTVSPropertyOp5
 70
     1
102
RTVSPropertyOp6
 70
     1
102
RTVSPropertyOp7
 70
     1
102
RTVSPropertyOp8
 70
     1
102
RTVSPropertyOp9
 70
     1
102
RTVSPropertyOp10
 70
     1
102
RTVSPropertyOp11
 70
     1
102
RTVSPropertyOp12
 70
     1
102
RTVSPropertyOp13
 70
     1
102
RTVSPropertyOp14
 70
     1
102
RTVSPropertyOp15
 70
     1
102
RTVSPropertyOp16
 70
     1
102
RTVSPropertyOp17
 70
     1
102
RTVSPropertyOp18
 70
     1
102
RTVSPropertyOp19
 70
     1
102
RTVSPropertyOp20
 70
     1
102
RTVSPropertyOp21
 70
     1
102
RTVSPropertyOp22
 70
     1
102
RTVSPropertyOp23
 70
     1
102
RTVSPropertyOp24
 70
     1
102
RTVSPropertyOp25
 70
     1
102
RTVSPropertyOp26
 70
     1
102
RTVSPropertyOp27
 70
     1
102
RTVSPropertyOp28
 70
     1
102
RTVSPropertyOp29
 70
     1
102
RTVSPropertyOp30
 70
     1
102
RTVSPropertyOp31
 70
     1
102
RTVSPropertyOp32
 70
     1
  0
XRECORD
  5
606
102
{ACAD_REACTORS
330
605
102
}
330
605
100
AcDbXrecord
280
     1
102
RTVSPropertyOp0
 70
     1
102
RTVSPropertyOp1
 70
     1
102
RTVSPropertyOp2
 70
     1
102
RTVSPropertyOp3
 70
     1
102
RTVSPropertyOp4
 70
     1
102
RTVSPropertyOp5
 70
     1
102
RTVSPropertyOp6
 70
     1
102
RTVSPropertyOp7
 70
     1
102
RTVSPropertyOp8
 70
     1
102
RTVSPropertyOp9
 70
     1
102
RTVSPropertyOp10
 70
     1
102
RTVSPropertyOp11
 70
     1
102
RTVSPropertyOp12
 70
     1
102
RTVSPropertyOp13
 70
     1
102
RTVSPropertyOp14
 70
     1
102
RTVSPropertyOp15
 70
     1
102
RTVSPropertyOp16
 70
     1
102
RTVSPropertyOp17
 70
     1
102
RTVSPropertyOp18
 70
     1
102
RTVSPropertyOp19
 70
     1
102
RTVSPropertyOp20
 70
     1
102
RTVSPropertyOp21
 70
     1
102
RTVSPropertyOp22
 70
     1
102
RTVSPropertyOp23
 70
     1
102
RTVSPropertyOp24
 70
     1
102
RTVSPropertyOp25
 70
     1
102
RTVSPropertyOp26
 70
     1
102
RTVSPropertyOp27
 70
     1
102
RTVSPropertyOp28
 70
     1
102
RTVSPropertyOp29
 70
     1
102
RTVSPropertyOp30
 70
     1
102
RTVSPropertyOp31
 70
     1
102
RTVSPropertyOp32
 70
     1
  0
ENDSEC
  0
EOF
